Укол парасолькою / Le coup du parapluie (1980) Remux 1080p 4xUkr/Fra | Sub Fra/Eng

Нові коментарі

Нова тема   Відповісти
Автор Повідомлення
MakRA 
VIP


З нами з: 11.11.18
Востаннє: 24.09.20
Повідомлень: 1120

2019-09-08 00:10  
Укол парасолькою / Le coup du parapluie (1980) Remux 1080p 4xUkr/Fra | Sub Fra/Eng


Альтернативні постери:



Жанр: пригодницький, комедія, кримінальний
Країна: Франція



Кінокомпанія: Gaumont, Gaumont International
Режисер: Жерар Урі [Gerard Oury]
Актори: П’єр Рішар [Pierre Richard], Валері Мерес [Valerie Mairesse], Крістіна Мурілло [Christine Murillo], Гордон Мітчелл [Gordon Mitchell], Жерар Жюно [Gérard Jugnot], Моріс Ріш [ Maurice Risch], Домінік Лаванант [Dominique Lavanant], Вітторіо Капріоле [Vittorio Caprioli], Герт Фрьобе [Gert Frobe], Ясен Хан [Yaseen Khan]

Сюжет:
Головний герой фільму — актор-невдаха Грегуар Леконт (П'єр Рішар) відправляється на кастинг на роль вбивці. Сусідні офіси, плутанина в документах… В результаті непорозуміння Грегуар потрапляє на зустріч зі справжніми мафіозі і, прийнявши їх ватажка за продюсера, підписує з ними контракт. Він не підозрює, що йому належить виступити в ролі справжнього кілера і вбити в Сен-Тропе торговця зброєю Отто Крампа (Герт Фрьобе) на прізвисько «Кит», уколом отруєної парасольки...

В основу ідеї способу злочину у фільмі було покладене вбивство у 1978 році болгарського дисидента Георгія Маркова, здійснене в Лондоні агентом болгарських спецслужб, який скористався для вбивства парасолькою, у яку було вмонтовано капсулу з отрутою.


Тривалість: 01:35:26
Якість: Remux 1080p
Відео:
кодек:
розмір кадру: 1920 х 1080
бітрейт: 33 Mб/с

Аудіо # 1:
мова: українська
переклад: професійний дубльований
кодек: 2.0
бітрейт: 192 кб/с
Про озвучення:
Ролі дублювали:Ярослав Чорненький, Наталя Задніпровська, Наталя Поліщук, Анатолій Пашнін, Михайло Жонін, Андрій Самінін.
Аудіо # 2:
мова: українська
переклад: багатоголосий закадровий
кодек: 2.0
бітрейт: 192 кб/с

Аудіо # 3:
мова: українська
переклад: двоголосий закадровий
кодек: 2.0
бітрейт: 192 кб/с
Про озвучення:
Ролі озвучили:Олександр Завальський і Ніна Касторф.
Аудіо # 4:
мова: українська
переклад: двоголосий закадровий
кодек: 2.0
бітрейт: 192 кб/с
Про озвучення:
Ролі озвучили:Анатолій Зіновенко, Тетяна Зіновенко.
Аудіо # 5:
мова: французька
переклад: оригінал
кодек: -HD MA 2.0
бітрейт: 887 кб/с

Субтитри # 1: (Full)
мова: французька
тип: програмні (м'які)
формат: *.srt

Субтитри # 2: (SDH)
мова: французька
тип: пререндерні
формат: *.pgs

Субтитри # 3: (Full)
мова: англійська
тип: програмні (м'які)
формат: *.srt

Збережено оригінальні розділи, як на Blu-ray.
Info
General
Unique ID : 278572184947607370807286395945363494228 (0xD1930D1FCB6D2E3EC8AA02BDB2FCD554)
Complete name : I:\+Фільмографії- П’єр Рішар [Pierre Richard]\Le coup du parapluie (1980) Remux 1080p 4xUkrFra Sub FraEng [Hurtom].
Format :
Format version : Version 4
File size : 23.1 GiB
Duration : 1 h 35 min
Overall bit rate mode : Variable
Overall bit rate : 34.6 Mb/s
Movie name : Укол парасолькою / Le coup du parapluie (1980) Remux 1080p 4xUkr/Fra | Sub Fra/Eng [Hurtom]
Encoded date : UTC 2020-02-11 22:52:51
Writing application : v25.0.0 ('Prog Noir') 64-bit
Writing library : libebml v1.3.6 + v1.4.9
Cover : Yes
Attachments : cover.jpg

Video
ID : 1
Format : AVC
Format/Info : Advanced Video Codec
Format profile : [email protected]
Format settings : CABAC / 4 Ref Frames
Format settings, CABAC : Yes
Format settings, Reference fra : 4 frames
Codec ID : V_MPEG4/ISO/AVC
Duration : 1 h 35 min
Bit rate mode : Variable
Bit rate : 33.0 Mb/s
Maximum bit rate : 35.0 Mb/s
Width : 1 920 pixels
Height : 1 080 pixels
Display aspect ratio : 16:9
Frame rate mode : Constant
Frame rate : 24.000 FPS
Standard : NTSC
Color space : YUV
Chroma subsampling : 4:2:0
Bit depth : 8 bits
Scan type : Progressive
Bits/(Pixel*Frame) : 0.663
Stream size : 22.0 GiB (95%)
Title : Le coup du parapluie (1980) Remux 1080p 4xUkr/Fra | Sub Fra/Eng [Hurtom]
Language : Ukrainian
Default : Yes
Forced : Yes
Color range : Limited
Color primaries : BT.709
Transfer characteristics : BT.709
Matrix coefficients : BT.709

Audio #1
ID : 2
Format : AC-3
Format/Info : Audio Coding 3
Commercial name : Dolby Digital
Codec ID : A_AC3
Duration : 1 h 35 min
Bit rate mode : Constant
Bit rate : 192 kb/s
Channel(s) : 2 channels
Channel layout : L R
Sampling rate : 48.0 kHz
Frame rate : 31.250 FPS (1536 SPF)
Compression mode : Lossy
Stream size : 131 MiB (1%)
Title : DUB [СТБ] 2.0
Language : Ukrainian
Service kind : Complete Main
Default : Yes
Forced : Yes

Audio #2
ID : 3
Format : AC-3
Format/Info : Audio Coding 3
Commercial name : Dolby Digital
Codec ID : A_AC3
Duration : 1 h 35 min
Bit rate mode : Constant
Bit rate : 192 kb/s
Channel(s) : 2 channels
Channel layout : L R
Sampling rate : 48.0 kHz
Frame rate : 31.250 FPS (1536 SPF)
Compression mode : Lossy
Stream size : 131 MiB (1%)
Title : MVO [Volia CINE+] 2.0
Language : Ukrainian
Service kind : Complete Main
Default : No
Forced : No

Audio #3
ID : 4
Format : AC-3
Format/Info : Audio Coding 3
Commercial name : Dolby Digital
Codec ID : A_AC3
Duration : 1 h 35 min
Bit rate mode : Constant
Bit rate : 192 kb/s
Channel(s) : 2 channels
Channel layout : L R
Sampling rate : 48.0 kHz
Frame rate : 31.250 FPS (1536 SPF)
Compression mode : Lossy
Stream size : 131 MiB (1%)
Title : DVO [2+2] 2.0
Language : Ukrainian
Service kind : Complete Main
Default : No
Forced : No

Audio #4
ID : 5
Format : AC-3
Format/Info : Audio Coding 3
Commercial name : Dolby Digital
Codec ID : A_AC3
Duration : 1 h 35 min
Bit rate mode : Constant
Bit rate : 192 kb/s
Channel(s) : 2 channels
Channel layout : L R
Sampling rate : 48.0 kHz
Frame rate : 31.250 FPS (1536 SPF)
Compression mode : Lossy
Stream size : 131 MiB (1%)
Title : DVO [K1] 2.0
Language : Ukrainian
Service kind : Complete Main
Default : No
Forced : No

Audio #5
ID : 6
Format : XLL
Format/Info : Digital Theater Systems
Commercial name : -HD Master Audio
Codec ID : A_DTS
Duration : 1 h 35 min
Bit rate mode : Variable
Bit rate : 887 kb/s
Channel(s) : 2 channels
Channel layout : L R
Sampling rate : 48.0 kHz
Frame rate : 93.750 FPS (512 SPF)
Bit depth : 24 bits
Compression mode : Lossless
Stream size : 605 MiB (3%)
Title : Original -HD MA 2.0
Language : French
Default : No
Forced : No

Text #1
ID : 7
Format : UTF-8
Codec ID : S_TEXT/UTF8
Codec ID/Info : UTF-8 Plain Text
Duration : 1 h 31 min
Bit rate : 51 b/s
Count of elements : 736
Stream size : 34.7 KiB (0%)
Title : Fre (Full)
Language : French
Default : No
Forced : No

Text #2
ID : 8
Format : PGS
Muxing mode : zlib
Codec ID : S_HDMV/PGS
Codec ID/Info : Picture based subtitle format used on BDs/HD-DVDs
Duration : 1 h 34 min
Bit rate : 28.1 kb/s
Count of elements : 2604
Stream size : 18.9 MiB (0%)
Title : Fre (SDH)
Language : French
Default : No
Forced : No

Text #3
ID : 9
Format : UTF-8
Codec ID : S_TEXT/UTF8
Codec ID/Info : UTF-8 Plain Text
Duration : 1 h 31 min
Bit rate : 43 b/s
Count of elements : 711
Stream size : 29.2 KiB (0%)
Title : Eng (Full)
Language : English
Default : No
Forced : No

Menu
00:00:00.000 : en:Chapter 1
00:07:19.000 : en:Chapter 2
00:17:18.120 : en:Chapter 3
00:24:22.040 : en:Chapter 4
00:32:39.280 : en:Chapter 5
00:40:27.320 : en:Chapter 6
00:50:30.840 : en:Chapter 7
00:58:59.560 : en:Chapter 8
01:06:24.040 : en:Chapter 9
01:15:03.200 : en:Chapter 10
01:22:47.920 : en:Chapter 11
01:26:37.280 : en:Chapter 12
01:31:40.880 : en:Chapter 13
Скріншоти
Джерело: &
Висловлюю подяку п. _oles - зведення, п. MAKAPOHHIK, п. Tanat13, п. karvai0,п. xottabi4007 - запис з ТБ; фільмографії акторів та інформація про озвучення - п. Віктор
Також дякую п. taraskill1 за надану доріжку від Volia CINE+
Особиста оцінка: 10 - без зайвих вагань рекомендую всім!


Золотий реліз (завантажене не впливає на рейтинг)
 Трекер:    Зареєстрований   

Завантажити / скачати фільм українською



відео для новачків



 Зареєстрований:   2020-02-12 02:33
 Розмір:   23.1 GB 
 Оцінка фільму:   9.3/10 (Голосів: 13)
   
MakRA 
VIP


З нами з: 11.11.18
Востаннє: 24.09.20
Повідомлень: 1120

2020-02-12 02:40  
Реліз оновлено 12.02.2020
Додано доріжку від Volia CINE+, неіменовані розділи і повні французькі субтитри

+380954897458 
VIP


З нами з: 02.06.17
Востаннє: 18.09.20
Повідомлень: 942

2020-02-14 23:33  
Цитата:
Жер Фроб [Gert Frobe]

Герт Фрьобе правильно, бо цей актор німець, а не француз. Це він грав Оріка Голдфінгера у фільмі про Джеймса Бонда.

Додано через 1 хвилину 58 секунд:

Там у Вас написано так як треба, до речі. Happy

MakRA 
VIP


З нами з: 11.11.18
Востаннє: 24.09.20
Повідомлень: 1120

2020-02-15 00:28  
+380954897458
Точно! Дякую, виправив.

Ваш часовий пояс: GMT + 2 Години

Нова тема   Відповісти