Подорож хорошого пса / A Dog's Journey (2019)

Нові коментарі

Нова тема   Відповісти
Автор Повідомлення
Anonymous 







2019-09-07 18:19  
Подорож хорошого пса / A Dog's Journey (2019)

Альтернативні постери:







Жанр: драма, комедія, пригодницький, сімейний, фентезі
Країна: Китай, Індія, Гонконг, США



Кінокомпанія: DreamWorks, Walden Media, Amblin Entertainment
Режисер: Ґейл Манкусо / Gail Mancuso
Актори: Джош Гад, Денніс Квейд, Кетрін Прескотт, Марж Хелгенбергер, Бетті Джилпін, Еббі Райдер Фортсон, Йен Чен, Джонні Галекі

Сюжет:
Пес Бейлі живе щасливим життям на мічиганській фермі свого власника Ітана та його дружини Ханни та з задоволенням грає з маленькою онукою Ханни СіДжей. Одного разу мама СіДжей Глорія забирає дівчинку з ферми у місто, і Бейлі дає собі обіцянку, що знайде її в своєму наступному житті. Пес перероджується і стає цуценям вже більш дорослої СіДжей.


Тривалість: 01:48:39
Якість:

Відео:
кодек:
розмір кадру: 720х304
бітрейт: 1532 кб/с

Аудіо:
мова: українська
переклад: професійний дубльований | студія LeDoyen
кодек: 2.0 [стерео]
бітрейт: 192 кб/с

Субтитри:
мова: українська (форсовані)
тип: програмні (м'які)
формат: *.srt
переклад: igor911
Info
Код:
General
Complete name               : A Dog's Journey (2019) [Ukr] [Hurtom].avi
Format                      : AVI
Format/Info                 : Audio Video Interleave
File size                   : 1.32 GiB
Duration                    : 1 h 48 min
Overall bit rate            : 1 733 kb/s
Movie name                  : Подорож хорошого пса / A Dog's Journey (2019) [Ukr] [Hurtom]
Writing application         : VirtualDubModUkr 1.5.10.2 (build 2542/release)
Writing library             : VirtualDubMod build 2542/release

Video
ID                          : 0
Format                      : MPEG-4 Visual
Format profile              : Advanced [email protected]
Format settings             : BVOP1 / Custom Matrix
Format settings, BVOP       : 1
Format settings, QPel       : No
Format settings, GMC        : No warppoints
Format settings, Matrix     : Custom
Codec ID                    :
Codec ID/Hint               :
Duration                    : 1 h 48 min
Bit rate                    : 1 532 kb/s
Width                       : 720 pixels
Height                      : 304 pixels
Display aspect ratio        : 2.35:1
Frame rate                  : 23.976 (24000/1001) FPS
Color space                 : YUV
Chroma subsampling          : 4:2:0
Bit depth                   : 8 bits
Scan type                   : Progressive
Compression mode            : Lossy
Bits/(Pixel*Frame)          : 0.292
Stream size                 : 1.16 GiB (88%)
Writing library             : 73

Audio
ID                          : 1
Format                      : AC-3
Format/Info                 : Audio Coding 3
Commercial name             : Dolby Digital
Codec ID                    : 2000
Duration                    : 1 h 48 min
Bit rate mode               : Constant
Bit rate                    : 192 kb/s
Channel(s)                  : 2 channels
Channel layout              : L R
Sampling rate               : 48.0 kHz
Frame rate                  : 31.250 FPS (1536 SPF)
Bit depth                   : 16 bits
Compression mode            : Lossy
Stream size                 : 149 MiB (11%)
Alignment                   : Split across interleaves
Interleave, duration        : 42  ms (1.00 video frame)
Interleave, preload duratio : 500  ms
Title                       : Ukr Dub [LeDoyen, stereo]
Service kind                : Complete Main



Джерело: &

Перша частина: Життя і мета собаки / A Dog's Purpose (2017)


 Трекер:    Зареєстрований   

Завантажити / скачати фільм українською



відео для новачків



 Зареєстрований:   2019-09-07 19:56
 Розмір:   1.32 GB 
 Оцінка фільму:   9.8/10 (Голосів: 88)
   
elephant1k 
Свій


З нами з: 04.05.16
Востаннє: 22.10.19
Повідомлень: 54

2019-09-08 02:00  
кiно бомба. як i перша частина - супер! 10/10
haronwovka 
Частий відвідувач


З нами з: 14.02.14
Востаннє: 21.10.19
Повідомлень: 34

2019-09-08 09:54  
Підкажіть,як називається перша частина?
Anonymous 







2019-09-08 09:59  
haronwovka написано:
Підкажіть,як називається перша частина?

Життя і мета собаки / A Dog's Purpose (2017) https://toloka.to/tracker.php?nm=A+Dog%27s+Purpose+2017

haronwovka 
Частий відвідувач


З нами з: 14.02.14
Востаннє: 21.10.19
Повідомлень: 34

2019-09-08 10:59  
Anonymous Дякую за допомогу.
masiff 
Свій


З нами з: 06.12.16
Востаннє: 21.10.19
Повідомлень: 90

2019-09-09 17:49  
Переглянемо...
leicheman 
Відео Гуртом - фільмокрай
Відео Гуртом - фільмокрай


З нами з: 03.07.14
Востаннє: 22.10.19
Повідомлень: 4090

2019-09-10 19:39  
Ух, як же в мене палає одне місце (перепрошую за подробиці) від цієї "адаптації" книжки у вигляді фільму. 3/10
Навіть перший фільм набагато краще був ніж ОЦЕ.
тут буде фільм VS книжка (Якщо не дивилися і не читали то не відкривайте)
1. Головна відмінність з книгою, що Ітан у фільми живий. В першій книжці він помирає.
2. Чомусь з СіДжей зробили музикантку, а у книжці вона займалася акторством.
3. Бейлі знаходить СіДжей у книжці в підлітковому віці, а в цьому фільмі коли вона ще дитина.
4. Найкращий друг СіДжей, якийсь "лошок" у фільмі в порівнянні з книгою.
5. СіДжей у фільмі просто запрягли копи коли її хлопець продавав наркотики на тусі (що дуже тупо, ось вона просто стоїть з собакою, а за секунди її садять копи) у книзі її заарештували здається за те, що у тому приміщенні де вона займалася акторством (у неї були ключі) випросив її хлопець зайти туди і потім з другом вкрав звідти речі, а так як ключі були у СіДжей то її і арештували.
6. У фільмі СіДжей, якась пай дівчина що не знала гівна у житті, а у книзі вона була "бунтарка" , яка через свою матір шалаву не мала нормального виховання і любові. Зовсім не показали, як пес допомагав СіДжей прожити це життя, який у них був зв'язок.
Прибрали її хворобу і зробили довбаний геппі -енд у кінці, а ось у книзі про акторство вона забула її хлопець помер, а сама вона почала працювати у домі для літніх людей (де доживала своє її матірв і там померла), здається психологом чи психотерапевтом.

vovanduk 
Новенький


З нами з: 20.11.09
Востаннє: 21.10.19
Повідомлень: 12

2019-09-13 22:48  
Дякую за чудовий сімейний фільм
Подивилися із задоволенням першу та другу частину!

andriy_nv 
VIP


З нами з: 27.06.08
Востаннє: 22.10.19
Повідомлень: 934

2019-09-14 19:05  
хороше кіно
в деяких моментах по дитячому наївне
але перша частина мені сподобалась більше

bogdanich 
VIP


З нами з: 24.10.13
Востаннє: 21.10.19
Повідомлень: 578

2019-09-23 22:02  
Непогана сімейна казка, але перший фільм цікавіший.
7/10.
Дякую!

aabond 
Новенький


З нами з: 04.01.17
Востаннє: 22.10.19
Повідомлень: 5

2019-10-22 00:18  
Дуже гарний сімейний фільм. Мегарекомендую.
Ваш часовий пояс: GMT + 2 Години

Нова тема   Відповісти