Рокетмен / Rocketman (2019) 1080p H.265 Ukr/Eng | Sub Ukr/Eng

Нові коментарі

Нова тема   Відповісти
Автор Повідомлення
Anonymous 







2019-09-07 10:57  
Рокетмен / Rocketman (2019) 1080p H.265 Ukr/Eng | Sub Ukr/Eng

Рокетмен / Rocketman (2019) 1080p H.265 Ukr/Eng | Sub Ukr/Eng


Жанр: біографія, драма, музика, мюзикл
Країна: Велика Британія, США, Канада
Кінокомпанія: Paramount Pictures, New Republic Pictures, Marv Films
Режисер: Декстер Флетчер
Актори: Тарон Еґертон, Джеймі Белл, Річард Медден, Брайс Даллас Говард, Джемма Джонс, Стівен Макінтош, Том Беннетт, Чарлі Роу

Сюжет:
Як одному товстому хлопцеві на ім'я Реджинальд Дуайт здійснити свою мрію та стати всесвітньо відомим? Він собі часто задавав це запитання, на яке одного разу йому все-таки дали відповідь — потрібно просто вбити невдаху в собі та почати жити по-справжньому. Усю свою юність хлопець був дуже сором’язливим, вчився грати на піаніно. Пізніше він відкрив у собі ще й талант до написання пісень — але ось бути головною зіркою завжди боявся. Коли же Реджі вирішив поміняти своє ім'я на псевдонім Елтон Джон, все змінилося. Його поведінка, екстравагантні образи, всесвітньо відомі пісні і, що найголовніше, шоу — ось заради чого будуть ходити глядачі. Це історія людини, яку знають у кожній країні на нашій планеті.

Тривалість: 02:01:16
Якість:

Відео:
кодек: H.265 (HEVC)
розмір кадру: 1920 x 800
бітрейт: 6 931 кб/с
бітова глибина: 10 біт

Увага! Перед завантаженням переконайтесь, що ваш пристрій відтворення (та/або ПЗ) підтримує H.265 (HEVC)

Аудіо # 1:
мова: українська
переклад: професійний дубльований
кодек: AC-3 5.1
бітрейт: 384 кб/с

Аудіо # 2:
мова: англійська
переклад: оригінал
кодек: AC-3 5.1
бітрейт: 640 кб/с

Субтитри # 1-2: (Forced, Full)
мова: українська
тип: програмні (м'які)
формат: *.srt

Субтитри # 3-4: (Full, SDH)
мова: англійська
тип: програмні (м'які)
формат: *.srt


Info
Код:
General
Unique ID                                : 199797336290046701574407270171573461227 (0x964F9139107018B10154D66BDC97A0EB)
Complete name                            : Rocketman (2019) 1080p H.265 [UKR_ENG] [Hurtom].
Format                                   :
Format version                           : Version 4
File size                                : 6.74 GiB
Duration                                 : 2 h 1 min
Overall bit rate                         : 7 957 kb/s
Movie name                               : Рокетмен / Rocketman (2019)
Encoded date                             : UTC 2019-09-09 21:45:54
Writing application                      : v20.0.0 ('I Am The Sun') 64-bit
Writing library                          : libebml v1.3.5 + v1.4.8
Cover                                    : Yes
Attachments                              : cover.jpg

Video
ID                                       : 1
Format                                   : HEVC
Format/Info                              : High Efficiency Video Coding
Format profile                           : Main [email protected]@High
Codec ID                                 : V_MPEGH/ISO/HEVC
Duration                                 : 2 h 1 min
Bit rate                                 : 6 931 kb/s
Width                                    : 1 920 pixels
Height                                   : 800 pixels
Display aspect ratio                     : 2.40:1
Frame rate mode                          : Constant
Frame rate                               : 23.976 (24000/1001) FPS
Color space                              : YUV
Chroma subsampling                       : 4:2:0
Bit depth                                : 10 bits
Bits/(Pixel*Frame)                       : 0.188
Stream size                              : 5.87 GiB (87%)
Title                                    : Рокетмен / Rocketman (2019)
Language                                 : English
Default                                  : Yes
Forced                                   : No
Color range                              : Limited
Color primaries                          : BT.709
Transfer characteristics                 : BT.709
Matrix coefficients                      : BT.709

Audio #1
ID                                       : 2
Format                                   : AC-3
Format/Info                              : Audio Coding 3
Commercial name                          : Dolby Digital
Codec ID                                 : A_AC3
Duration                                 : 2 h 1 min
Bit rate mode                            : Constant
Bit rate                                 : 384 kb/s
Channel(s)                               : 6 channels
Channel layout                           : L R C LFE Ls Rs
Sampling rate                            : 48.0 kHz
Frame rate                               : 31.250 FPS (1536 SPF)
Bit depth                                : 16 bits
Compression mode                         : Lossy
Stream size                              : 333 MiB (5%)
Title                                    : / 5.1 Ch / 384 kbps / ПД / iTunes
Language                                 : Ukrainian
Service kind                             : Complete Main
Default                                  : Yes
Forced                                   : Yes

Audio #2
ID                                       : 3
Format                                   : AC-3
Format/Info                              : Audio Coding 3
Commercial name                          : Dolby Digital
Codec ID                                 : A_AC3
Duration                                 : 2 h 1 min
Bit rate mode                            : Constant
Bit rate                                 : 640 kb/s
Channel(s)                               : 6 channels
Channel layout                           : L R C LFE Ls Rs
Sampling rate                            : 48.0 kHz
Frame rate                               : 31.250 FPS (1536 SPF)
Bit depth                                : 16 bits
Compression mode                         : Lossy
Stream size                              : 555 MiB (8%)
Title                                    : / 5.1 Ch / 640 kbps / Original
Language                                 : English
Service kind                             : Complete Main
Default                                  : No
Forced                                   : No

Text #1
ID                                       : 4
Format                                   : UTF-8
Codec ID                                 : S_TEXT/UTF8
Codec ID/Info                            : UTF-8 Plain Text
Duration                                 : 1 h 59 min
Bit rate                                 : 19 b/s
Count of elements                        : 341
Stream size                              : 16.7 KiB (0%)
Title                                    : Forced
Language                                 : Ukrainian
Default                                  : Yes
Forced                                   : Yes

Text #2
ID                                       : 5
Format                                   : UTF-8
Codec ID                                 : S_TEXT/UTF8
Codec ID/Info                            : UTF-8 Plain Text
Duration                                 : 1 h 59 min
Bit rate                                 : 70 b/s
Count of elements                        : 1357
Stream size                              : 61.4 KiB (0%)
Title                                    : Full
Language                                 : Ukrainian
Default                                  : No
Forced                                   : No

Text #3
ID                                       : 6
Format                                   : UTF-8
Codec ID                                 : S_TEXT/UTF8
Codec ID/Info                            : UTF-8 Plain Text
Duration                                 : 1 h 50 min
Bit rate                                 : 50 b/s
Count of elements                        : 1314
Stream size                              : 41.3 KiB (0%)
Title                                    : Full
Language                                 : English
Default                                  : No
Forced                                   : No

Text #4
ID                                       : 7
Format                                   : UTF-8
Codec ID                                 : S_TEXT/UTF8
Codec ID/Info                            : UTF-8 Plain Text
Duration                                 : 1 h 59 min
Bit rate                                 : 70 b/s
Count of elements                        : 1738
Stream size                              : 61.6 KiB (0%)
Title                                    : SDH
Language                                 : English
Default                                  : No
Forced                                   : No

Menu
00:00:00.000                             : :Chapter 01
00:05:50.725                             : :Chapter 02
00:11:20.805                             : :Chapter 03
00:18:43.080                             : :Chapter 04
00:22:39.858                             : :Chapter 05
00:28:01.054                             : :Chapter 06
00:34:21.392                             : :Chapter 07
00:38:35.229                             : :Chapter 08
00:42:52.444                             : :Chapter 09
00:50:40.579                             : :Chapter 10
00:57:30.905                             : :Chapter 11
01:04:06.175                             : :Chapter 12
01:09:28.914                             : :Chapter 13
01:16:10.941                             : :Chapter 14
01:24:44.079                             : :Chapter 15
01:29:09.344                             : :Chapter 16
01:35:22.383                             : :Chapter 17
01:42:46.243                             : :Chapter 18
01:51:11.831                             : :Chapter 19
01:55:25.335                             : :Chapter 20
Світлини




Джерело: &
Особиста оцінка: 0 - не дивився


 Трекер:    Зареєстрований   

Завантажити / скачати фільм українською



відео для новачків



 Зареєстрований:   2019-09-10 08:56
 Розмір:   6.74 GB 
 Оцінка фільму:   9/10 (Голосів: 18)
   
Інші релізи
   Рокетмен / Rocketman (2019) UHD Remux 4K 2160p HDR H.265 Ukr/Eng | Sub Ukr/Eng antik_2008  6 / 0   57.24 GB   2019-09-10 08:26 
   Рокетмен / Rocketman (2019) Remux 1080p Ukr/Eng | Sub Ukr/Eng antik_2008  12 / 0   29.19 GB   2019-09-09 19:02 
   Рокетмен / Rocketman (2019) 1080p Ukr/Eng | Sub Ukr/Eng staf777  16 / 0   7.54 GB   2019-09-09 16:28 
   Рокетмен / Rocketman (2019) Ukr/Eng | Sub Ukr/Eng igor911  34 / 0   2.18 GB   2019-09-07 13:18 
   Рокетмен / Rocketman (2019) igor911  30 / 0   1.46 GB   2019-09-07 10:36 
   Рокетмен / Rocketman (2019) 720p Ukr/Eng | Sub Ukr/Eng 11FrYkT  47 / 3   4.94 GB   2019-09-07 10:00 
   Рокетмен / Rocketman (2019) AVC Ukr/Eng | Sub Ukr/Eng 11FrYkT  73 / 0   2.23 GB   2019-09-07 09:54 
Влад Гук 
Частий відвідувач


З нами з: 06.07.13
Востаннє: 13.11.19
Повідомлень: 42

2019-09-09 16:33  
Автор, перевіряйте спочатку доріжку. В релізі не оригінальна англ доріжка, а коментована.
Anonymous 







2019-09-10 08:57  
Оригінальна доріжка + SDH саби.
Ваш часовий пояс: GMT + 2 Години

Нова тема   Відповісти