Рокетмен / Rocketman (2019) Ukr/Eng | Sub Ukr/Eng

Нові коментарі

Нова тема   Відповісти
Автор Повідомлення
Anonymous 







2019-09-07 11:43  
Рокетмен / Rocketman (2019) Ukr/Eng | Sub Ukr/Eng



Жанр: біографічний, драма, музичний, мюзикл
Країна: Велика Британія, США, Канада



Кінокомпанія: Paramount Pictures, New Republic Pictures, Marv Films
Режисер: Декстер Флетчер / Dexter Fletcher
Актори: Тарон Еґертон / Taron Egerton, Джеймі Белл / Jamie Bell, Річард Медден / Richard Madden, Брайс Даллас Говард / Bryce Dallas Howard, Джемма Джонс / Gemma Jones, Стівен Макінтош / Steven Mackintosh, Том Беннетт / Tom Bennett, Чарлі Роу / Charlie Rowe, Стівен Ґрем / Stephen Graham та інші

Сюжет:
Фентезійний байопік про одного з найуспішніших виконавців сучасності – неповторного сера Елтона Джона. Історія про те, як музичний вундеркінд перетворився в легенду британського року.
Офіційні українські трейлери та відео:
трейлер 1


трейлер 2


промо 1


промо 2


промо 3


Рокетмен: "Crocodile Rock"


Рокетмен: Тайрон Еґертон


фрагмент


про костюми 1


про костюми 2
Рейтинг MPAA: R - особам до 17 років обов'язкова присутність батьків або дорослого опікуна
Вікова категорія: 16+
Тривалість: 02:01:16
Якість:

Відео:
кодек:
розмір кадру: 720x304
бітрейт: 1727 кб/с

Аудіо # 1:
мова: українська
переклад: професійний дубльований | студія LeDoyen
кодек: 5.1
бітрейт: 384 кб/с
примітка: пісні звучать в оригіналі, на них є форсовані субтитри

Аудіо # 2:
мова: англійська
переклад: оригінал
кодек: 5.1
бітрейт: 448 кб/с

Субтитри # 1-2:
мова: українська (форсовані на пісні, повні)
тип: програмні (м'які)
формат: *.srt
переклад: Олена Цехмейстук

Субтитри # 3:
мова: англійська
тип: програмні (м'які)
формат: *.srt
Info
Код:
General
Complete name               : Rocketman (2019) [Ukr,Eng] [Hurtom].avi
Format                      : AVI
Format/Info                 : Audio Video Interleave
Format profile              : OpenDML
File size                   : 2.18 GiB
Duration                    : 2 h 1 min
Overall bit rate            : 2 577 kb/s
Movie name                  : Рокетмен / Rocketman (2019) [Ukr,Eng] [Hurtom]
Writing application         : VirtualDubModUkr 1.5.10.2 (build 2542/release)
Writing library             : VirtualDubMod build 2542/release

Video
ID                          : 0
Format                      : MPEG-4 Visual
Format profile              : Advanced [email protected]
Format settings             : BVOP1 / Custom Matrix
Format settings, BVOP       : 1
Format settings, QPel       : No
Format settings, GMC        : No warppoints
Format settings, Matrix     : Custom
Codec ID                    :
Codec ID/Hint               :
Duration                    : 2 h 1 min
Bit rate                    : 1 727 kb/s
Width                       : 720 pixels
Height                      : 304 pixels
Display aspect ratio        : 2.35:1
Frame rate                  : 23.976 (24000/1001) FPS
Color space                 : YUV
Chroma subsampling          : 4:2:0
Bit depth                   : 8 bits
Scan type                   : Progressive
Compression mode            : Lossy
Bits/(Pixel*Frame)          : 0.329
Stream size                 : 1.46 GiB (67%)
Writing library             : 73

Audio #1
ID                          : 1
Format                      : AC-3
Format/Info                 : Audio Coding 3
Commercial name             : Dolby Digital
Codec ID                    : 2000
Duration                    : 2 h 1 min
Bit rate mode               : Constant
Bit rate                    : 384 kb/s
Channel(s)                  : 6 channels
Channel layout              : L R C LFE Ls Rs
Sampling rate               : 48.0 kHz
Frame rate                  : 31.250 FPS (1536 SPF)
Bit depth                   : 16 bits
Compression mode            : Lossy
Stream size                 : 333 MiB (15%)
Alignment                   : Split across interleaves
Interleave, duration        : 42  ms (1.00 video frame)
Interleave, preload duratio : 500  ms
Title                       : UKR DUB [LeDoyen, iTunes 5.1]
Service kind                : Complete Main

Audio #2
ID                          : 2
Format                      : AC-3
Format/Info                 : Audio Coding 3
Commercial name             : Dolby Digital
Codec ID                    : 2000
Duration                    : 2 h 1 min
Bit rate mode               : Constant
Bit rate                    : 448 kb/s
Channel(s)                  : 6 channels
Channel layout              : L R C LFE Ls Rs
Sampling rate               : 48.0 kHz
Frame rate                  : 31.250 FPS (1536 SPF)
Bit depth                   : 16 bits
Compression mode            : Lossy
Stream size                 : 389 MiB (17%)
Alignment                   : Split across interleaves
Interleave, duration        : 42  ms (1.00 video frame)
Interleave, preload duratio : 500  ms
Title                       : ENG [Original]
Service kind                : Complete Main



Джерело: &


 Трекер:    Зареєстрований   

Завантажити / скачати фільм українською



відео для новачків



 Зареєстрований:   2019-09-07 14:18
 Розмір:   2.18 GB 
 Оцінка фільму:   8.1/10 (Голосів: 21)
 ЗАЛИШАЙТЕСЬ ЯКОМОГА ДОВШЕ НА РОЗДАЧІ! ЗАВАНТАЖИВ САМ - ДАЙ ЗАВАНТАЖИТИ ІНШИМ!
   
Інші релізи
   Рокетмен / Rocketman (2019) 1080p H.265 Ukr/Eng | Sub Ukr/Eng -Star-Lord-  13 / 2   6.74 GB   2019-09-10 09:56 
   Рокетмен / Rocketman (2019) UHD Remux 4K 2160p HDR H.265 Ukr/Eng | Sub Ukr/Eng antik_2008  4 / 0   57.24 GB   2019-09-10 09:26 
   Рокетмен / Rocketman (2019) Remux 1080p Ukr/Eng | Sub Ukr/Eng antik_2008  9 / 0   29.19 GB   2019-09-09 20:02 
   Рокетмен / Rocketman (2019) 1080p Ukr/Eng | Sub Ukr/Eng staf777  25 / 0   7.54 GB   2019-09-09 17:28 
   Рокетмен / Rocketman (2019) igor911  21 / 4   1.46 GB   2019-09-07 11:36 
   Рокетмен / Rocketman (2019) 720p Ukr/Eng | Sub Ukr/Eng 11FrYkT  32 / 4   4.94 GB   2019-09-07 11:00 
   Рокетмен / Rocketman (2019) AVC Ukr/Eng | Sub Ukr/Eng 11FrYkT  47 / 4   2.23 GB   2019-09-07 10:54 
antik_2008 
Релізер і модератор відео


З нами з: 20.10.08
Востаннє: 18.10.19
Повідомлень: 2489

2019-09-07 18:42  
Пісні озвучені ?
Anonymous 







2019-09-07 18:43  
antik_2008 написано:
Пісні озвучені ?

ні, пісні в оригіналі, переклад - субтитрами.

antik_2008 
Релізер і модератор відео


З нами з: 20.10.08
Востаннє: 18.10.19
Повідомлень: 2489

2019-09-07 18:44  
Добре. Дякую
K2 
Поважний учасник


З нами з: 02.11.08
Востаннє: 17.10.19
Повідомлень: 227

2019-09-10 22:22  
Еґертон молодчага! Не проста роль, гарно зіграв!
Ваш часовий пояс: GMT + 2 Години

Нова тема   Відповісти