Аладдін / Aladdin (2019) UHD mini 4K 2160p HDR x265 Ukr/Eng | Sub Eng

Нові коментарі

Нова тема   Відповісти
Автор Повідомлення
Babamin 
Свій


З нами з: 29.12.15
Востаннє: 15.09.19
Повідомлень: 66

2019-09-07 10:36  
Аладдін / Aladdin (2019) UHD mini 4K 2160p HDR x265 Ukr/Eng | Sub Eng

Аладдін / Aladdin (2019) UHD mini 4K 2160p HDR x265 Ukr/Eng | Sub Eng



Жанр: комедія, мюзикл, пригоди, романтика
Країна: США



Кінокомпанія: Walt Disney Pictures
Режисер: Ґай Річі
Актори: Мена Массуд, Наомі Скотт, Вілл Сміт, Марван Кензарі, Біллі Маґнуссен, Алан Т'юдік, Назім Педрад, Навід Неґабан, Нуман Акар, Каміль Лемежевський та інші

Сюжет:
Аграба – місто контрастів. У ньому живе дуже багато бідняків, які ледве зводять кінці з кінцями, іноді навіть переступаючи закон. Й у них на очах завжди є султанський палац, де люди явно не бідують. Одна випадкова зустріч злодюжки Аладіна із принцесою Жасмін вселила в серце хлопця любов. Але хто він, а хто вона? Його дріб'язкового стану явно не вистачить для того, щоб підкорити серце дівчини, яким би щирим і добрим хлопець не був. Але чистота Аладдіна знадобилася візирю Джафару – хлопець може допомогти йому добути бажану лампу із джином, яка знаходиться в зачарованій печері. Хлопцеві дійсно під силу її здобути – але йому ж необов'язково її віддавати Джафару, можна забрати джина собі, щоб той втілював усі бажання в життя.


Тривалість: 02:07:58
Якість: UltraHD mini 4K 2160p
Контейнер:

Відео:
кодек: H.265
розмір кадру: 3840 х 1608
бітрейт: 14,9 Мб/с
бітова глибина: 10 біт
кольоровий простір: BT.2020 (HDR)

Аудіо # 1:
мова: українська
переклад: професійний дубльований
кодек: 5.1
бітрейт: 1509 кб/с

Аудіо # 2:
мова: українська
переклад: професійний дубльований
кодек: 5.1
бітрейт: 640 кб/с

Аудіо # 3:
мова: англійська
переклад: оригінал
кодек: 5.1
бітрейт: 1509 кб/с

Субтитри #1-2
мова: англійська (full, SDH)
тип: програмні (м'які)
формат: *.srt
Log + Info:
[2019-09-07][05:03:27] x265 [info]: frame I: 2106, Avg QP:16.28 kb/s: 50576.25
[2019-09-07][05:03:27] x265 [info]: frame P: 36895, Avg QP:18.45 kb/s: 30048.12
[2019-09-07][05:03:27] x265 [info]: frame B: 145108, Avg QP:22.41 kb/s: 10504.39
[2019-09-07][05:03:27] x265 [info]: Weighted P-Frames: Y:9.3% UV:7.4%
[2019-09-07][05:03:27] x265 [info]: Weighted B-Frames: Y:7.6% UV:5.8%
[2019-09-07][05:03:27] x265 [info]: consecutive B-frames: 10.5% 4.0% 5.8% 26.2% 20.8% 11.8% 10.4% 10.4%
[2019-09-07][05:03:27] encoded 184109 frames in 216736.80s (0.85 fps), 14879.29 kb/s, Avg QP:21.55

Complete name : Aladdin.2019.UHD-.4K.2160p.HDR.x265.mini -Hurtom.
Format :
Format version : Version 4
File size : 16.6 GiB
Duration : 2 h 7 min
Overall bit rate : 18.5 Mb/s
Movie name : Aladdin (2019) UHD- 4K 2160p HDR x265 -Hurtom
Encoded date : UTC 2019-09-07 06:04:13
Writing application : v37.0.0 ('Leave It') 64-bit
Writing library : libebml v1.3.9 + v1.5.2

Video
ID : 1
Format : HEVC
Format/Info : High Efficiency Video Coding
Format profile : Main [email protected]@High
HDR format : SMPTE ST 2086, HDR10 compatible
Codec ID : V_MPEGH/ISO/HEVC
Duration : 2 h 7 min
Bit rate : 14.9 Mb/s
Width : 3 840 pixels
Height : 1 608 pixels
Display aspect ratio : 2.40:1
Frame rate mode : Constant
Frame rate : 23.976 (24000/1001) FPS
Color space : YUV
Chroma subsampling : 4:2:0 (Type 2)
Bit depth : 10 bits
Bits/(Pixel*Frame) : 0.101
Stream size : 13.3 GiB (80%)
Title : Aladdin.2019.UHD-.4K.2160p.HDR.x265-Hurtom
Writing library : x265 3.1+11-de920e0a3183:[Windows][MSVC 1922][64 bit] 10bit
Encoding settings : cpuid=1111039 / frame-threads=5 / numa-pools=16,16,16,16 / wpp / no-pmode / pme / no-psnr / no-ssim / log-level=2 / input-csp=1 / input-res=3840x1608 / interlace=0 / total-frames=184109 / level-idc=51 / high-tier=1 / uhd-bd=0 / ref=4 / no-allow-non-conformance / repeat-headers / annexb / aud / no-hrd / info / hash=0 / no-temporal-layers / no-open-gop / min-keyint=23 / keyint=250 / gop-lookahead=0 / bframes=7 / b-adapt=2 / b-pyramid / bframe-bias=0 / rc-lookahead=64 / lookahead-slices=4 / scenecut=40 / radl=0 / no-splice / no-intra-refresh / ctu=32 / min-cu-size=8 / rect / amp / max-tu-size=32 / tu-inter-depth=1 / tu-intra-depth=1 / limit-tu=0 / rdoq-level=2 / dynamic-rd=0.00 / no-ssim-rd / signhide / no-tskip / nr-intra=0 / nr-inter=0 / no-constrained-intra / no-strong-intra-smoothing / max-merge=5 / limit-refs=3 / no-limit-modes / me=3 / subme=7 / merange=57 / temporal-mvp / no-hme / weightp / weightb / no-analyze-src-pics / deblock=-3:-3 / sao / no-sao-non-deblock / rd=4 / no-early-skip / no-rskip / no-fast-intra / no-tskip-fast / no-cu-lossless / b-intra / no-splitrd-skip / rdpenalty=0 / psy-rd=2.00 / psy-rdoq=1.80 / no-rd-refine / no-lossless / cbqpoffs=0 / crqpoffs=0 / rc=crf / crf=16.5 / qcomp=0.60 / qpstep=2 / stats-write=0 / stats-read=0 / vbv-maxrate=160000 / vbv-bufsize=160000 / vbv-init=0.9 / crf-max=0.0 / crf-min=0.0 / ipratio=1.40 / pbratio=1.30 / aq-mode=1 / aq-strength=0.90 / cutree / zone-count=6 / zones: / start-frame=3300 / end-frame=6682 / bitrate-factor=1.115000 / zones: / start-frame=16809 / end-frame=18812 / bitrate-factor=1.065000 / zones: / start-frame=35376 / end-frame=43787 / bitrate-factor=1.045000 / zones: / start-frame=46623 / end-frame=61550 / bitrate-factor=1.068000 / zones: / start-frame=108788 / end-frame=112553 / bitrate-factor=1.103000 / zones: / start-frame=174431 / end-frame=184108 / bitrate-factor=0.400000 / no-strict-cbr / qg-size=32 / no-rc-grain / qpmax=69 / qpmin=0 / no-const-vbv / sar=0 / overscan=0 / videoformat=5 / range=0 / colorprim=9 / transfer=16 / colormatrix=9 / chromaloc=1 / chromaloc-top=2 / chromaloc-bottom=2 / display-window=0 / master-display=G(13250,34500)B(7500,3000)R(34000,16000)WP(15635,16450)L(40000000,50)cll=0,0 / min-luma=50 / max-luma=4000 / log2-max-poc-lsb=8 / vui-timing-info / vui-hrd-info / slices=1 / no-opt-qp-pps / no-opt-ref-list-length-pps / no-multi-pass-opt-rps / scenecut-bias=0.05 / no-opt-cu-delta-qp / no-aq-motion / hdr / hdr-opt / no-dhdr10-opt / no-idr-recovery-sei / analysis-reuse-level=5 / scale-factor=0 / refine-intra=0 / refine-inter=0 / refine-mv=0 / refine-ctu-distortion=0 / no-limit-sao / ctu-info=0 / no-lowpass-dct / refine-analysis-type=0 / copy-pic=1 / max-ausize-factor=1.0 / no-dynamic-refine / no-single-sei / no-hevc-aq / no-svt / no-field / qp-adaptation-range=1.00
Language : English
Default : Yes
Forced : No
Color range : Limited
Color primaries : BT.2020
Transfer characteristics : PQ
Matrix coefficients : BT.2020 non-constant
Mastering display color primaries : Display P3
Mastering display luminance : min: 0.0050 cd/m2, max: 4000 cd/m2

Audio #1
ID : 2
Format :
Format/Info : Digital Theater Systems
Codec ID : A_DTS
Duration : 2 h 7 min
Bit rate mode : Constant
Bit rate : 1 509 kb/s
Channel(s) : 6 channels
Channel layout : C L R Ls Rs LFE
Sampling rate : 48.0 kHz
Frame rate : 93.750 FPS (512 SPF)
Bit depth : 24 bits
Compression mode : Lossy
Stream size : 1.35 GiB (8%)
Language : Ukrainian
Default : Yes
Forced : No

Audio #2
ID : 3
Format : AC-3
Format/Info : Audio Coding 3
Commercial name : Dolby Digital
Codec ID : A_AC3
Duration : 2 h 7 min
Bit rate mode : Constant
Bit rate : 640 kb/s
Channel(s) : 6 channels
Channel layout : L R C LFE Ls Rs
Sampling rate : 48.0 kHz
Frame rate : 31.250 FPS (1536 SPF)
Bit depth : 16 bits
Compression mode : Lossy
Stream size : 586 MiB (3%)
Language : Ukrainian
Service kind : Complete Main
Default : No
Forced : No

Audio #3
ID : 4
Format :
Format/Info : Digital Theater Systems
Codec ID : A_DTS
Duration : 2 h 7 min
Bit rate mode : Constant
Bit rate : 1 509 kb/s
Channel(s) : 6 channels
Channel layout : C L R Ls Rs LFE
Sampling rate : 48.0 kHz
Frame rate : 93.750 FPS (512 SPF)
Bit depth : 24 bits
Compression mode : Lossy
Stream size : 1.35 GiB (8%)
Language : English
Default : No
Forced : No

Text #1
ID : 5
Format : UTF-8
Codec ID : S_TEXT/UTF8
Codec ID/Info : UTF-8 Plain Text
Duration : 2 h 0 min
Bit rate : 60 b/s
Count of elements : 1782
Stream size : 53.1 KiB (0%)
Title : Full
Language : English
Default : No
Forced : No

Text #2
ID : 6
Format : UTF-8
Codec ID : S_TEXT/UTF8
Codec ID/Info : UTF-8 Plain Text
Duration : 2 h 7 min
Bit rate : 72 b/s
Count of elements : 2429
Stream size : 67.4 KiB (0%)
Title : SDH
Language : English
Default : No
Forced : No

Menu
00:00:00.000 : :Chapter 01
00:04:49.372 : :Chapter 02
00:13:04.658 : :Chapter 03
00:18:55.759 : :Chapter 04
00:26:18.410 : :Chapter 05
00:30:26.282 : :Chapter 06
00:39:51.889 : :Chapter 07
00:54:50.161 : :Chapter 08
01:02:18.651 : :Chapter 09
01:09:19.488 : :Chapter 10
01:21:53.033 : :Chapter 11
01:33:51.417 : :Chapter 12
01:38:48.380 : :Chapter 13
01:45:19.396 : :Chapter 14
01:53:07.030 : :Chapter 15
01:59:38.462 : :Chapter 16
Скріншоти:
Source vs Encode
Джерело: & Babamin


 Трекер:    Зареєстрований   

Завантажити / скачати фільм українською



відео для новачків



 Зареєстрований:   2019-09-07 10:36
 Розмір:   16.58 GB 
 Оцінка фільму:   9.7/10 (Голосів: 6)
   
Інші релізи
   Аладдін / Aladdin (2019) 1080p 3D [Half OverUnder] Ukr/Eng | Sub Eng [16:9 Cropped] дядя1111  8 / 2   8.58 GB   2019-09-14 16:11 
   Аладдін / Aladdin (2019) 1080p H.265 Ukr/Eng | Sub Eng -Star-Lord-  28 / 1   8.51 GB   2019-09-03 18:57 
   Аладдін / Aladdin (2019) UHD Remux 4K 2160p HDR H.265 Ukr/Eng | Sub Eng antik_2008  18 / 1   52.91 GB   2019-09-02 23:58 
   Аладдін / Aladdin (2019) antik_2008  82 / 1   2.18 GB   2019-09-01 00:39 
   Аладдін / Aladdin (2019) Remux 1080p Ukr/Eng | Sub Eng antik_2008  36 / 0   33.78 GB   2019-09-01 00:01 
   Аладдін / Aladdin (2019) 1080p Ukr/Eng | Sub Eng antik_2008  54 / 1   16.68 GB   2019-08-31 22:54 
   Аладдін / Aladdin (2019) 1080p H.265 Ukr/Eng | Sub Eng antik_2008  39 / 3   10.41 GB   2019-08-31 22:19 
   Аладдін / Aladdin (2019) 720p Ukr/Eng | Sub Eng 11FrYkT  115 / 1   6.71 GB   2019-08-31 20:21 
   Аладдін / Aladdin (2019) AVC Ukr/Eng | Sub Eng 11FrYkT  93 / 0   2.41 GB   2019-08-31 17:22 
Ваш часовий пояс: GMT + 2 Години

Нова тема   Відповісти