Джим Ґудзик і машиніст Лукас / Jim Knopf und Lukas der Lokomotivführer (2018)

Нові коментарі

Нова тема   Відповісти
Автор Повідомлення
sergiyko.5 
VIP


З нами з: 25.02.16
Востаннє: 18.11.19
Повідомлень: 2750

2019-09-06 22:43  
Джим Ґудзик і машиніст Лукас / Jim Knopf und Lukas der Lokomotivführer (2018)

Джим Ґудзик і машиніст Лукас / Jim Knopf und Lukas der Lokomotivführer (2018)

Жанр: Пригоди, Сімейні, Фентезі
Країна: Німеччина
Кінокомпанія: Film4, Protagonist Pictures, Rook Films
Режисер: Денніс Ганзель
Актори: Хеннінг Баум, Соломон Гордон, Ширлі МакЛейн, Мілан Пешель, Міхаель Хербіг, Уве Оксенкнехт

Сюжет:
На одному з островів у чарівному світі є загадкова країна під назвою Медландія. Одного разу сюди доставляють маленького хлопчика. Згодом головний герой перетворюється у відважного шукача пригод. Тому, коли наш герой дізнається про викрадену принцесу, він вирушає на допомогу в місто Драконів…




Тривалість: 01:49:45
Якість:

Відео: кодек: розмір кадру: 720 х 304 бітрейт: 1500 кб/с
Аудіо: мова: українська переклад: професійний дубльований кодек: 2.0 бітрейт: 256 кб/с
Про файл:
General
Complete name : D:\Documents\Torrents\FILM\Jim Knopf und Lukas der Lokomotivfuehrer.2018..avi
Format : AVI
Format/Info : Audio Video Interleave
File size : 1.36 GiB
Duration : 1 h 49 min
Overall bit rate : 1 773 kb/s
Writing application : VirtualDubMod 1.5.10.3 | www.virtualdub-fr.org || (build 2550/release)
Writing library : VirtualDubMod build 2550/release

Video
ID : 0
Format : MPEG-4 Visual
Format profile : Advanced [email protected]
Format settings : BVOP1 / Custom Matrix
Format settings, BVOP : 1
Format settings, QPel : No
Format settings, GMC : No warppoints
Format settings, Matrix : Custom
Codec ID :
Codec ID/Hint :
Duration : 1 h 49 min
Bit rate : 1 508 kb/s
Width : 720 pixels
Height : 304 pixels
Display aspect ratio : 2.35:1
Frame rate : 23.976 (24000/1001) FPS
Color space : YUV
Chroma subsampling : 4:2:0
Bit depth : 8 bits
Scan type : Progressive
Compression mode : Lossy
Bits/(Pixel*Frame) : 0.287
Stream size : 1.16 GiB (85%)
Writing library : 73

Audio
ID : 1
Format : AC-3
Format/Info : Audio Coding 3
Commercial name : Dolby Digital
Codec ID : 2000
Duration : 1 h 49 min
Bit rate mode : Constant
Bit rate : 256 kb/s
Channel(s) : 2 channels
Channel layout : L R
Sampling rate : 48.0 kHz
Frame rate : 31.250 FPS (1536 SPF)
Bit depth : 16 bits
Compression mode : Lossy
Stream size : 201 MiB (14%)
Alignment : Split across interleaves
Interleave, duration : 42 ms (1.00 video frame)
Interleave, preload duratio : 500 ms
Service kind : Complete Main
Скріншоти:


 Трекер:    Зареєстрований   

Завантажити / скачати фільм українською



відео для новачків



 Зареєстрований:   2019-09-06 22:51
 Розмір:   1.36 GB 
 Оцінка фільму:   10/10 (Голосів: 14)
   
Ваш часовий пояс: GMT + 2 Години

Нова тема   Відповісти