Джим Ґудзик і машиніст Лукас / Jim Knopf und Lukas der Lokomotivführer (2018) AVC Ukr/Ger

Нові коментарі

Нова тема   Відповісти
Автор Повідомлення
sergiyko.5 
VIP


З нами з: 25.02.16
Востаннє: 18.11.19
Повідомлень: 2750

2019-09-06 21:04  
Джим Ґудзик і машиніст Лукас / Jim Knopf und Lukas der Lokomotivführer (2018) Ukr/Ger

Джим Ґудзик і машиніст Лукас / Jim Knopf und Lukas der Lokomotivführer (2018) AVC Ukr/Ger

Жанр: пригодницький, сімейний, фентезі
Країна: Німеччина



Кінокомпанія: Film4, Protagonist Pictures, Rook Films
Режисер: Денніс Ганзель
Актори: Хеннінг Баум, Соломон Гордон, Ширлі МакЛейн, Мілан Пешель, Міхаель Хербіг, Уве Оксенкнехт

Сюжет:
На одному з островів у чарівному світі є загадкова країна під назвою Медландія. Одного разу сюди доставляють маленького хлопчика. Згодом головний герой перетворюється у відважного шукача пригод. Тому, коли наш герой дізнається про викрадену принцесу, він вирушає на допомогу в місто Драконів…


Тривалість: 01:49:45
Якість:

Відео: кодек: розмір кадру: 1024 х 428 бітрейт: 2400 кб/с
Аудіо 1: мова: українська переклад: професійний дубльований кодек: 2.0 бітрейт: 256 кб/с
Аудіо 2: мова: німецька переклад: оригінал кодек: 5.1 бітрейт: 448 кб/с
Про файл:
General
Unique ID : 274118205533481176247401114040846956539 (0xCE393EFC1341B31FDC658E13A796B7FB)
Complete name : D:\Documents\Torrents\FILM\Jim.Knopf.und.Lukas.der.Lokomotivfuehrer.2018..
Format :
Format version : Version 4
File size : 2.35 GiB
Duration : 1 h 49 min
Overall bit rate mode : Constant
Overall bit rate : 3 070 kb/s
Movie name : Jim Button and Luke the Engine Driver 2018
Encoded date : UTC 2019-09-06 19:54:17
Writing application : v36.0.0 ('Is That Jazz?') 64-bit
Writing library : libebml v1.3.9 + v1.5.2
Cover : Yes
Attachments : cover.jpg

Video
ID : 1
Format : AVC
Format/Info : Advanced Video Codec
Format profile : [email protected]
Format settings : CABAC / 1 Ref Frames
Format settings, CABAC : Yes
Format settings, Reference : 1 frame
Format settings, GOP : M=1, N=25
Codec ID : V_MPEG4/ISO/AVC
Duration : 1 h 49 min
Bit rate mode : Constant
Bit rate : 2 366 kb/s
Width : 1 024 pixels
Height : 428 pixels
Display aspect ratio : 2.40:1
Frame rate mode : Constant
Frame rate : 23.976 (24000/1001) FPS
Color space : YUV
Chroma subsampling : 4:2:0
Bit depth : 8 bits
Scan type : Progressive
Bits/(Pixel*Frame) : 0.225
Stream size : 1.81 GiB (77%)
Language : German
Default : Yes
Forced : No

Audio #1
ID : 2
Format : AC-3
Format/Info : Audio Coding 3
Commercial name : Dolby Digital
Codec ID : A_AC3
Duration : 1 h 49 min
Bit rate mode : Constant
Bit rate : 256 kb/s
Channel(s) : 2 channels
Channel layout : L R
Sampling rate : 48.0 kHz
Frame rate : 31.250 FPS (1536 SPF)
Bit depth : 16 bits
Compression mode : Lossy
Stream size : 201 MiB (8%)
Title : DUB 2ch
Language : Ukrainian
Service kind : Complete Main
Default : Yes
Forced : Yes

Audio #2
ID : 3
Format : AC-3
Format/Info : Audio Coding 3
Commercial name : Dolby Digital
Codec ID : A_AC3
Duration : 1 h 49 min
Bit rate mode : Constant
Bit rate : 448 kb/s
Channel(s) : 6 channels
Channel layout : L R C LFE Ls Rs
Sampling rate : 48.0 kHz
Frame rate : 31.250 FPS (1536 SPF)
Bit depth : 16 bits
Compression mode : Lossy
Stream size : 352 MiB (15%)
Title : Original
Language : German
Service kind : Complete Main
Default : No
Forced : No

Menu
00:00:00.000 : en:Глава 01
00:08:29.801 : en:Глава 02
00:17:28.965 : en:Глава 03
00:27:20.180 : en:Глава 04
00:37:23.491 : en:Глава 05
00:45:46.577 : en:Глава 06
00:54:37.191 : en:Глава 07
01:02:09.517 : en:Глава 08
01:14:04.982 : en:Глава 09
01:24:52.754 : en:Глава 10
01:33:58.091 : en:Глава 11
01:40:14.091 : en:Глава 12
Скріншоти:


 Трекер:    Зареєстрований   

Завантажити / скачати фільм українською



відео для новачків



 Зареєстрований:   2019-09-06 22:00
 Розмір:   2.35 GB 
 Оцінка фільму:   9.8/10 (Голосів: 13)
   
Ваш часовий пояс: GMT + 2 Години

Нова тема   Відповісти