Мавп'ячі витівки / Apenstreken (2015) 1080p

Нові коментарі

Нова тема   Відповісти
Автор Повідомлення
sergiyko.5 
VIP


З нами з: 25.02.16
Востаннє: 05.12.19
Повідомлень: 2801

2019-09-06 15:13  
Мавп'ячі витівки / Apenstreken (2015) 1080p

Мавп'ячі витівки / Apenstreken (2015) 1080p

Жанр: дитячий, сімейний
Країна: Нідерланди
Кінокомпанія: Johan Nijenhuis & Co, Farmhouse Film & TV, Mollywood
Режисер: Йохан Нійенхейс
Актори: Тіго Буссемакерс, Дік Карлір, Хюс Дам, Арьян Едервен, Ларс Хенкенс, Ейвон Ясперс, Люк Пітерс, Елвін Пулінкс, Харрі ван Рейтховен, Мартіна Сандіфорт

Сюжет:
Маленький хлопчик Вім – сирота. І понад усе на світі він мріє піти до школи. Натомість він вимушений тяжко працювати на заводі. Його тяга до знань неймовірно сильна. Тож, одного дня Вім не витримує і тікає від насильної праці, життя у злиднях та невігластва. І не один, з ним у подорож вирушає кумедна мавпочка.

Звичайно ж, хлопчика оголошують у розшук. Керівники фабрики не збираються втрачати безкоштовну робочу силу. Тому Віму потрібно не тільки знайти новий дім, друзів та школу, але й вирватися з полону нахабних дорослих.

Чи вдасться Віму стати щасливим?




Тривалість: 01:27:10
Якість:

Відео: кодек: розмір кадру: 1920 х 1080 бітрейт: 4600 кб/с
Аудіо: мова: українська переклад: професійний дубльований кодек: 2.0 бітрейт: 256 кб/с
Озвучення:
Про файл:
General
Unique ID : 300640605610035753241475989313433253356 (0xE22D46449A8695326BCF07DDB4D635EC)
Complete name : D:\Documents\Torrents\FILM\Apenstreken.2015.1080p..
Format :
Format version : Version 4
File size : 2.98 GiB
Duration : 1 h 27 min
Overall bit rate : 4 890 kb/s
Movie name : by sergiyko
Encoded date : UTC 2019-09-06 13:08:32
Writing application : v36.0.0 ('Is That Jazz?') 64-bit
Writing library : libebml v1.3.9 + v1.5.2

Video
ID : 1
Format : AVC
Format/Info : Advanced Video Codec
Format profile : [email protected]
Format settings : CABAC / 6 Ref Frames
Format settings, CABAC : Yes
Format settings, Reference : 6 frames
Codec ID : V_MPEG4/ISO/AVC
Duration : 1 h 27 min
Bit rate : 4 632 kb/s
Width : 1 920 pixels
Height : 1 080 pixels
Display aspect ratio : 16:9
Frame rate mode : Constant
Frame rate : 25.000 FPS
Color space : YUV
Chroma subsampling : 4:2:0
Bit depth : 8 bits
Scan type : Progressive
Bits/(Pixel*Frame) : 0.089
Stream size : 2.82 GiB (95%)
Title : Apenstreken 2015
Language : English
Default : Yes
Forced : No

Audio
ID : 2
Format : LC
Format/Info : Advanced Audio Codec Low Complexity
Codec ID : A_AAC-2
Duration : 1 h 27 min
Bit rate : 256 kb/s
Channel(s) : 2 channels
Channel layout : L R
Sampling rate : 44.1 kHz
Frame rate : 43.066 FPS (1024 SPF)
Compression mode : Lossy
Stream size : 160 MiB (5%)
Title : DUB | ТЕТ
Language : Ukrainian
Default : Yes
Forced : No
Скріншоти:


 Трекер:    Зареєстрований   

Завантажити / скачати фільм українською



відео для новачків



 Зареєстрований:   2019-09-06 15:13
 Розмір:   2.98 GB 
 Оцінка фільму:   10/10 (Голосів: 3)
   
Інші релізи
   Мавп'ячі витівки / Apenstreken (2015) drop_plz  4 / 0   1.46 GB   2018-08-08 13:01 
Ваш часовий пояс: GMT + 2 Години

Нова тема   Відповісти