Клуб анонімних кілерів / Killers Anonymous (2019)

Нові коментарі

Нова тема   Відповісти
Автор Повідомлення
Anonymous 







2019-09-06 11:00  
Клуб анонімних кілерів / Killers Anonymous (2019)


Жанр: бойовик, детектив, кримінальний, трилер
Країна: Велика Британія, США



Кінокомпанія: Goldfinch, Posterity Pictures
Режисер: Мартін Овен / Martin Owen
Актори: МайАнна Берінг / MyAnna Buring, Ґері Олдмен / Gary Oldman, Томмі Фленаган / Tommy Flanagan, Ріон Ніколь Браун / Rhyon Nicole Brown, Майкл Сока / Michael Socha, Джесіка Альба / Jessica Alba, С'юкі Вотергаус / Suki Waterhouse, Елліот Джеймс Ленгрідж / Elliot James Langridge, Елізабет Морріс / Elizabeth Morris, Ізабель Аллен / Isabelle Allen, Саллі Коллет / Sally Collett, Тім Макіннерні / Tim McInnerny та інші

Сюжет:
Десь в секретному місці міські вбивці збираються на зустрічі анонімних кілерів — там, в колі однодумців, вони вчаться придушувати свої жорстокі пориви. У ніч, коли помер сенатор США, клуб поповнився таємничим новобранцем, і почалися сварки — усі почали підозрювати один одного. Зрештою герої розуміють, що вони пов'язані з більшою і страхітливою організацією, ніж могли собі уявити.
Офіційний український трейлер:


Рейтинг MPAA: R - особам до 17 років обов'язкова присутність батьків або дорослого опікуна
Вікова категорія: 16+

Тривалість: 01:35:54
Якість:

Відео:
кодек:
розмір кадру: 720х304
бітрейт: 1781 кб/с

Аудіо:
мова: українська
переклад: багатоголосий закадровий
кодек: 2.0 [стерео]
бітрейт: 192 кб/с
Info
Код:
General
Complete name               : Killers Anonymous (2019) [Ukr] [Hurtom].avi
Format                      : AVI
Format/Info                 : Audio Video Interleave
File size                   : 1.33 GiB
Duration                    : 1 h 35 min
Overall bit rate            : 1 983 kb/s
Movie name                  : Клуб анонімних кілерів / Killers Anonymous (2019) [Ukr] [Hurtom]
Writing application         : VirtualDubModUkr 1.5.10.2 (build 2542/release)
Writing library             : VirtualDubMod build 2542/release

Video
ID                          : 0
Format                      : MPEG-4 Visual
Format profile              : Advanced [email protected]
Format settings             : BVOP1 / Custom Matrix
Format settings, BVOP       : 1
Format settings, QPel       : No
Format settings, GMC        : No warppoints
Format settings, Matrix     : Custom
Codec ID                    :
Codec ID/Hint               :
Duration                    : 1 h 35 min
Bit rate                    : 1 781 kb/s
Width                       : 720 pixels
Height                      : 304 pixels
Display aspect ratio        : 2.35:1
Frame rate                  : 23.976 (24000/1001) FPS
Color space                 : YUV
Chroma subsampling          : 4:2:0
Bit depth                   : 8 bits
Scan type                   : Progressive
Compression mode            : Lossy
Bits/(Pixel*Frame)          : 0.339
Stream size                 : 1.19 GiB (90%)
Writing library             : 73

Audio
ID                          : 1
Format                      : AC-3
Format/Info                 : Audio Coding 3
Commercial name             : Dolby Digital
Codec ID                    : 2000
Duration                    : 1 h 35 min
Bit rate mode               : Constant
Bit rate                    : 192 kb/s
Channel(s)                  : 2 channels
Channel layout              : L R
Sampling rate               : 48.0 kHz
Frame rate                  : 31.250 FPS (1536 SPF)
Bit depth                   : 16 bits
Compression mode            : Lossy
Stream size                 : 132 MiB (10%)
Alignment                   : Split across interleaves
Interleave, duration        : 42  ms (1.00 video frame)
Interleave, preload duratio : 500  ms
Title                       : UKR MVO [Cinemaker, stereo]
Service kind                : Complete Main



Джерело: &


 Трекер:    Зареєстрований   

Завантажити / скачати фільм українською



відео для новачків



 Зареєстрований:   2019-09-06 11:36
 Розмір:   1.33 GB 
 Оцінка фільму:   7.1/10 (Голосів: 47)
 ЗАЛИШАЙТЕСЬ ЯКОМОГА ДОВШЕ НА РОЗДАЧІ! ЗАВАНТАЖИВ САМ - ДАЙ ЗАВАНТАЖИТИ ІНШИМ!
   
daniljuk 
Новенький


З нами з: 16.02.15
Востаннє: 22.10.19
Повідомлень: 2

2019-09-06 13:10  
Олдмена з Альбою поміняйте місцями
Anonymous 







2019-09-06 16:04  
daniljuk написано:
Олдмена з Альбою поміняйте місцями

Якщо це про постер - то таке явище дуже часто зустрічається на офіційних постерах, думав, що це вже всім відомо. За різними даними така "плутанина" є наслідком такого поняття як Billing (тут - порядок імен) і може бути навіть прописаний у контракті чиє ім'я стоятиме на постері першим. Так що міняйте самі Happy

Додано через 3 хвилини 20 секунд:

відео про "плутанину імен" на постерах (обережно, московська говірка)

Panther2214 
Попереджень: 1
Попереджень: 1 


З нами з: 29.09.17
Востаннє: 22.10.19
Повідомлень: 371

2019-09-06 19:40  
Anonymous

Я всі фільми пам'ятаю з Ніколасом Кейджем, можна сказати фанат та не пригадую, щоб він був лисим 🤣

akela80 
Новенький


З нами з: 06.05.16
Востаннє: 20.10.19
Повідомлень: 3

2019-09-06 21:42  
Цитата:
Я всі фільми пам'ятаю з Ніколасом Кейджем, м

Де ви бачите Ніколаса

vovanduk 
Новенький


З нами з: 20.11.09
Востаннє: 21.10.19
Повідомлень: 12

2019-09-08 22:45  
Як на мене фільм лажовий - не зачіпає.
Проте дякую за реліз

romale09 
Частий відвідувач


З нами з: 17.10.11
Востаннє: 16.10.19
Повідомлень: 27

2019-09-17 23:24  
Фільм лайно
nosferatumes 
Свій


З нами з: 12.10.16
Востаннє: 22.10.19
Повідомлень: 71

2019-09-18 09:10  
Переглянув, фільм на один раз. Гарі Олдмен, хоч і старіє, та як завжди на висоті. Особливо сподобався персонаж лікаря та як його зіграв актор. 4/10. На серйозність фільм аж ніяк не претендує Wink (2)
Alexander1983 
Новенький


З нами з: 18.03.10
Востаннє: 21.10.19
Повідомлень: 7

2019-09-18 16:37  
Таке лайно цей фільм...а рейтинг не низький в ІнтернешнлМувіДатаБейс,пфф
olegwan 
Свій


З нами з: 19.03.09
Востаннє: 22.10.19
Повідомлень: 95

2019-10-11 12:49  
Фільм ні про що. Та й гра акторів аби яка. Весь час чекав на якийсь драматичний поворот у сюжеті.
Фільм не вартий витраченого на себе часу

Ваш часовий пояс: GMT + 2 Години

Нова тема   Відповісти