Сахара / Sahara (2005) 1080p [Open Matte] 2xUkr/Eng | Sub Eng

Нові коментарі

Нова тема   Відповісти
Автор Повідомлення
MakRA 
VIP


З нами з: 11.11.18
Востаннє: 24.09.20
Повідомлень: 1120

2019-09-05 23:57  
Сахара / Sahara (2005) 1080p [Open Matte] 2xUkr/Eng | Sub Eng


Альтернативний український постер:

Альтернативний постер:

Жанр: екшн, комедія, трилер
Країна: Велика Британія , Іспанія , Німеччина , США



Кінокомпанія: Paramount Pictures, Bristol Bay Productions, Baldwin Entertainment Group, J.K. Livin Productions, Desertlands Entertainment, Kanzaman, Babelsberg Film, Moguletta, Sahara Productions, Mace Neufeld Productions
Режисер: Брек Ейснер [Breck Eisner]
Актори: Джуд Акувудіке [Jude Akuwudike], Марк Аспіналл [Mark Aspinall], Ракі Айола [Rakie Ayola], Крістофер Белло [Christopher Bello], Метью МакКонаґі [Matthew McConaughey], Стів Зан [Steve Zahn], Пенелопа Круз [Penélope Cruz], Рейн Уілсон [Rainn Wilson], Ламберт Bілсон [Lambert Wilson], Роберт Каванах [Robert Cavanah], Ніколас Бевені [Nicholas Beveney], Емпото Босаж [Empotoe Bosage]

Сюжет:
Відважний шукач скарбів Дірк Пітт і його кращий друг Ал Джордіно направляються в найбільшу і загадкову пустелю світу, щоб знайти американський броненосець "Техас", а на його борту довгоочікуваний скарб. Але пустеля надійно зберігає свою таємницю і відкриє її тільки найдостойнішому і сміливому шукачеві скарбів. На складному шляху до незчисленних скарбів героям потрібно не просто пройти величезну пустелю, але і врятувати жителів від смертельної хвороби, джерело якої шукає прекрасний лікар Єва Рохас. Благородні шукачі пригод готові на якийсь час забути про привабливі скарби, якщо в небезпеці людські життя. Перестрілки, бійки, погоні не дадуть занудьгувати...
Фільм знято за мотивами однойменного роману Клайва Касслера.


Тривалість: 02:03:58
Якість: 1080p [Open Matte]
Відео:
кодек:
розмір кадру: 1920 х 1080
бітрейт: 13 Mб/с

Аудіо # 1:
мова: українська
переклад: двоголосий закадровий
кодек: 2.0
бітрейт: 192 кб/с
Про озвучення:

Переклад: Лідія Громовенко
Літературний редактор: Олена Ковалевська
Звукорежисер: Віктор Коляда
Режисер: Станіслав Чернілевський
Ролі озвучили: Тетяна Антонова і Олександр Завальський

Фільм перекладено і озвучено на Студії 1+1
Аудіо # 2:
мова: українська
переклад: багатоголосий закадровий
кодек: 2.0
бітрейт: 192 кб/с
Про озвучення:

Ролі озвучили: Метью МакКонаґі — Ярослав Чорненький, Стів Зан — Юрій Ребрик, Вільям Мейсі — Олег Стальчук, Анатолій Пашнін і один чи два жіночих голоси.

Фільм перекладено і озвучено на студії Так Треба Продакшн на замовлення телекомпанії ICTV.
Аудіо # 3:
мова: англійська
переклад: оригінал
кодек: 5.1
бітрейт: 1509 кб/с

Субтитри:
мова: англійська
тип: програмні (м'які)
формат: *.srt

Збережено оригінальні розділи, як на Blu-ray.
Info
General
Unique ID : 73334369840816843713559032484596590099 (0x372BAF9605E527C89070389334ACA613)
Complete name : M:\+ Фільми в HD\Пригоди, екшн\Sahara (2005) 1080p [Open Matte] 2xUkrEng Sub Eng [Hurtom].
Format :
Format version : Version 4
File size : 12.9 GiB
Duration : 2 h 3 min
Overall bit rate : 14.9 Mb/s
Movie name : Сахара / Sahara (2005) 1080p [Open Matte] 2xUkr/Eng | Sub Eng [Hurtom]
Encoded date : UTC 2019-09-05 19:49:55
Writing application : v25.0.0 ('Prog Noir') 64-bit
Writing library : libebml v1.3.6 + v1.4.9

Video
ID : 1
Format : AVC
Format/Info : Advanced Video Codec
Format profile : [email protected]
Format settings : CABAC / 4 Ref Frames
Format settings, CABAC : Yes
Format settings, Reference fra : 4 frames
Codec ID : V_MPEG4/ISO/AVC
Duration : 2 h 3 min
Bit rate : 13.0 Mb/s
Width : 1 920 pixels
Height : 1 080 pixels
Display aspect ratio : 16:9
Frame rate mode : Constant
Frame rate : 23.976 (24000/1001) FPS
Color space : YUV
Chroma subsampling : 4:2:0
Bit depth : 8 bits
Scan type : Progressive
Bits/(Pixel*Frame) : 0.261
Stream size : 11.2 GiB (87%)
Title : Sahara (2005) 1080p [Open Matte] 2xUkr/Eng | Sub Eng [Hurtom]
Writing library : core 148 r2665 a01e339
Encoding settings : cabac=1 / ref=4 / deblock=1:-1:-1 / analyse=0x3:0x113 / me=umh / subme=11 / psy=1 / psy_rd=1.00:0.20 / mixed_ref=1 / me_range=24 / chroma_me=1 / trellis=2 / 8x8dct=1 / cqm=0 / deadzone=21,11 / fast_pskip=0 / chroma_qp_offset=-3 / threads=12 / lookahead_threads=1 / sliced_threads=0 / nr=0 / decimate=0 / interlaced=0 / bluray_compat=0 / constrained_intra=0 / bframes=6 / b_pyramid=2 / b_adapt=2 / b_bias=0 / direct=3 / weightb=1 / open_gop=0 / weightp=2 / keyint=240 / keyint_min=23 / scenecut=40 / intra_refresh=0 / rc_lookahead=40 / rc=2pass / mbtree=0 / bitrate=12999 / ratetol=1.0 / qcomp=0.60 / qpmin=0 / qpmax=69 / qpstep=4 / cplxblur=20.0 / qblur=0.5 / vbv_maxrate=50000 / vbv_bufsize=62500 / nal_hrd=none / filler=0 / ip_ratio=1.40 / pb_ratio=1.30 / aq=1:1.00
Language : Ukrainian
Default : Yes
Forced : Yes

Audio #1
ID : 2
Format : AC-3
Format/Info : Audio Coding 3
Commercial name : Dolby Digital
Codec ID : A_AC3
Duration : 2 h 3 min
Bit rate mode : Constant
Bit rate : 192 kb/s
Channel(s) : 2 channels
Channel layout : L R
Sampling rate : 48.0 kHz
Frame rate : 31.250 FPS (1536 SPF)
Bit depth : 16 bits
Compression mode : Lossy
Stream size : 170 MiB (1%)
Title : DVO [1+1] 2.0
Language : Ukrainian
Service kind : Complete Main
Default : Yes
Forced : Yes

Audio #2
ID : 3
Format : AC-3
Format/Info : Audio Coding 3
Commercial name : Dolby Digital
Codec ID : A_AC3
Duration : 2 h 3 min
Bit rate mode : Constant
Bit rate : 192 kb/s
Channel(s) : 2 channels
Channel layout : L R
Sampling rate : 48.0 kHz
Frame rate : 31.250 FPS (1536 SPF)
Bit depth : 16 bits
Compression mode : Lossy
Stream size : 170 MiB (1%)
Title : MVO [ICTV] 2.0
Language : Ukrainian
Service kind : Complete Main
Default : No
Forced : No

Audio #3
ID : 4
Format :
Format/Info : Digital Theater Systems
Codec ID : A_DTS
Duration : 2 h 3 min
Bit rate mode : Constant
Bit rate : 1 509 kb/s
Channel(s) : 6 channels
Channel layout : C L R Ls Rs LFE
Sampling rate : 48.0 kHz
Frame rate : 93.750 FPS (512 SPF)
Bit depth : 16 bits
Compression mode : Lossy
Stream size : 1.31 GiB (10%)
Title : Original 5.1
Language : English
Default : No
Forced : No

Text
ID : 5
Format : UTF-8
Codec ID : S_TEXT/UTF8
Codec ID/Info : UTF-8 Plain Text
Duration : 1 h 56 min
Bit rate : 48 b/s
Count of elements : 1204
Stream size : 41.4 KiB (0%)
Title : Eng (Full)
Language : English
Default : No
Forced : No

Menu
00:00:00.000 : en:00:00:00.000
00:07:49.260 : en:00:07:49.260
00:12:02.763 : en:00:12:02.763
00:20:00.073 : en:00:20:00.073
00:27:53.672 : en:00:27:53.672
00:36:02.910 : en:00:36:02.910
00:46:02.634 : en:00:46:02.634
00:52:36.611 : en:00:52:36.611
00:58:54.822 : en:00:58:54.822
01:04:52.054 : en:01:04:52.054
01:10:51.288 : en:01:10:51.288
01:16:59.364 : en:01:16:59.364
01:21:30.760 : en:01:21:30.760
01:31:39.118 : en:01:31:39.118
01:42:09.206 : en:01:42:09.206
01:49:05.080 : en:01:49:05.080
01:57:47.894 : en:01:57:47.894
02:03:56.429 : en:02:03:56.429
Скріншоти
Джерело: &
Висловлюю подяки: за українські доріжки - п. karvai0 - синхронізація, п. xslim (1), п. dvorsky (2) - запис з ТБ; українізовані постери - п. karvai0, п. WriterMix; фільмографії акторів та інформація про озвучення - п. Віктор
Особиста оцінка: 10 - без зайвих вагань рекомендую всім!

З роздачі даного релізу пішов, але сам файл залишається на зберіганні.
Якщо виникне потреба завантажити і нікого не буде на роздачі протягом дня, прохання писати в особисті повідомлення.


 Трекер:    Зареєстрований   

Завантажити / скачати фільм українською



відео для новачків



 Зареєстрований:   2019-09-05 23:57
 Розмір:   12.89 GB 
 Оцінка фільму:   10/10 (Голосів: 6)
   
Інші релізи
   Сахара / Sahara (2005) [JPN Transfer, Open Matte] 1080p H.265 2xUkr/Eng | Sub Eng -Star-Lord-  0 / 0   15.1 GB   2020-03-01 00:54 
   Сахара / Sahara (2005) AVC 2xUkr/Eng | Sub Eng staf777  4 / 0   2.96 GB   2019-07-06 10:41 
   Сахара / Sahara (2005) Remux 1080p [Open Matte] 2xUkr/Eng | Sub Eng boroznaya  3 / 0   35.25 GB   2018-07-29 12:02 
   Сахара / Sahara (2005) 720p 2xUkr/Eng | Sub Eng igor911  2 / 0   6.41 GB   2014-11-04 20:53 
   Сахара / Sahara (2005) 2xUkr | Sub Eng karvai0  4 / 0   2.14 GB   2012-04-07 11:33 
MakRA 
VIP


З нами з: 11.11.18
Востаннє: 24.09.20
Повідомлень: 1120

2019-09-06 00:02  
Роздача буде завтра.
Luzohid 
Свій


З нами з: 14.09.15
Востаннє: 23.09.20
Повідомлень: 93

2019-10-19 18:52  
Велика дяка, а то юзер boroznaya зробив(ла) реліз виключно для власників флешок 64GB, це ж капець Sad (1)
Bruce_Nolan 
Поважний учасник


З нами з: 17.06.14
Востаннє: 12.08.20
Повідомлень: 182

2020-01-14 23:44  
ОpenМatte люблю, а то 2.35:1 де тільки їх немає
Ваш часовий пояс: GMT + 2 Години

Нова тема   Відповісти