Максим Рисанов (Maxim Rysanov) - Johann Sebastian Bach - Suites for Solo Cello Nos. 1, 4 & 5 - (2010) [] | Classical / Viola

Нові коментарі

Нова тема   Відповісти
Автор Повідомлення
kolpavel 
VIP


З нами з: 04.05.14
Востаннє: 24.02.21
Повідомлень: 1375

2019-09-05 19:55  
Maxim Rysanov (Максим Рисанов) - Johann Sebastian Bach - Suites for Solo Cello Nos. 1, 4 & 5 - (2010) [] | Classical / Viola

Максим Рисанов (Maxim Rysanov) - Johann Sebastian Bach - Suites for Solo Cello Nos. 1, 4 & 5 - (2010) [] | Classical / Viola


Стиль: Classical / Viola
Країна, місто: Україна, Краматорськ.
Сайти: Офіційний сайт
Видавець: BIS (Номер за каталогом: BIS-SACD-1783)
Виконавці:
Максим Рисанов - альт.

Треклист:
    Johann Sebastian Bach (1685-1750)

    Suites for Solo Cello
    transcribed for the viola

    [1]-[6] Suite No.4 in E flat major, BWV 1010
    [7]-[12] Suite No.5 in C minor, BWV 1011
    [13]-[18] Suite No.1 in G major, BWV 1007

    Suite No.4 in E flat major, BWV1010
    01. I. Prélude 4'37
    02. II. Allemande 3'42
    03. III. Courante 3'14
    04. IV. Sarabande 4'00
    05. V. Bourrée I – Bourrée II 4'35
    06. VI. Gigue 2'39

    Suite No.5 in C minor, BWV1011 24'19
    07. I. Prélude 6'34
    08. II. Allemande 4'09
    09. III. Courante 2'10
    10. IV. Sarabande 4'16
    11. V. Gavotte I – Gavotte II 5'14
    12. VI. Gigue 1'56

    Suite No.1 in G major, BWV1007 16'26
    13. I. Prélude 2'14
    14. II. Allemande 3'28
    15. III. Courante 2'29
    16. IV. Sarabande 2'56
    17. V. Menuet I – Menuet II 3'47
    18. VI. Gigue 1'32

Тривалість: 01:05:20
Мова: iнструментальнi композицiї
Аудіо-кодек:
Бітрейт: 626 кб/с
Джерело: трекер
Додаткова інформація:
EAC
Exact Audio Copy V1.0 beta 3 from 29. August 2011

EAC extraction logfile from 9. March 2013, 0:40

Maxim Rysanov / Bach - Suites Nos 1, 4, 5

Used drive : HL-DT-STDVDRAM GSA-4083N Adapter: 1 ID: 0

Read mode : Secure
Utilize accurate stream : Yes
Defeat audio cache : Yes
Make use of C2 pointers : No

Read offset correction : 667
Overread into Lead-In and Lead-Out : No
Fill up missing offset samples with silence : Yes
Delete leading and trailing silent blocks : No
Null samples used in CRC calculations : Yes
Used interface : Native Win32 interface for Win NT & 2000

Used output format : User Defined Encoder
Selected bitrate : 896 kBit/s
Quality : High
Add ID3 tag : No
Command line compressor : C:\Program Files\Exact Audio Copy\\.exe
Additional command line options : -V -8 %source%

TOC of the extracted CD

Track | Start | Length | Start sector | End sector
---------------------------------------------------------
1 | 0:00.00 | 4:40.38 | 0 | 21037
2 | 4:40.38 | 3:44.32 | 21038 | 37869
3 | 8:24.70 | 3:17.47 | 37870 | 52691
4 | 11:42.42 | 4:07.40 | 52692 | 71256
5 | 15:50.07 | 4:37.32 | 71257 | 92063
6 | 20:27.39 | 2:55.25 | 92064 | 105213
7 | 23:22.64 | 6:36.43 | 105214 | 134956
8 | 29:59.32 | 4:09.68 | 134957 | 153699
9 | 34:09.25 | 2:10.74 | 153700 | 163523
10 | 36:20.24 | 4:20.63 | 163524 | 183086
11 | 40:41.12 | 5:16.22 | 183087 | 206808
12 | 45:57.34 | 2:14.29 | 206809 | 216887
13 | 48:11.63 | 2:16.46 | 216888 | 227133
14 | 50:28.34 | 3:30.18 | 227134 | 242901
15 | 53:58.52 | 2:29.64 | 242902 | 254140
16 | 56:28.41 | 3:02.25 | 254141 | 267815
17 | 59:30.66 | 3:49.53 | 267816 | 285043
18 | 63:20.44 | 1:59.65 | 285044 | 294033

Range status and errors

Selected range

Filename J:\New Music\Bach - Suites Nos 1,4,5 - Rysanov\Bach - Suites Nos 1, 4, 5.wav

Peak level 97.4 %
Extraction speed 4.2 X
Range quality 100.0 %
Test CRC D0DC05FB
Copy CRC D0DC05FB
Copy OK

No errors occurred

End of status report

==== Log checksum D54E841FAABB3CC29300CC754443469DE82EC527BE75CAE7A06731575B0BC269 ====


Якщо Ви справді бажаєте підтримати українське - після прослуховування, якщо музика вам сподобалась, придбайте ліцензійний диск. Підтримаймо вітчизняних виконавців!


Срібний реліз (на рейтинг впливає 50% завантаженого)
 Трекер:    Зареєстрований   

Завантажити / скачати українську музику



відео для новачків



 Зареєстрований:   2019-09-05 19:55
 Розмір:   298 MB 
 Оцінка музики:   10/10 (Голосів: 5)
   
kolpavel 
VIP


З нами з: 04.05.14
Востаннє: 24.02.21
Повідомлень: 1375

2019-09-08 21:42  
https://toloka.to/t103873 Maxim Rysanov (Максим Рисанов) - Johann Sebastian Bach - Suites for Solo Cello Nos. 2, 3 & 6 II - (2014) [] 
Ваш часовий пояс: GMT + 2 Години

Нова тема   Відповісти