Очі янгола / Angel Eyes (2001)

Нові коментарі

Нова тема   Відповісти
Автор Повідомлення
Anonymous 







2019-09-05 16:50  
Очі янгола / Angel Eyes (2001)

Очі янгола / Angel Eyes (2001)


Жанр: драма, мелодрама
Країна: США



Кінокомпанія: Franchise Pictures, Epsilon Motion Pictures, Canton Company, The, Angel Eyes Productions, AE Two Film Productions, Morgan Creek Productions
Режисер: Луїс Мандокі
Актори: Дженніфер Лопес, Джеймс Кевізел, Терренс Говард, Соня Брага, Ширлі Найт, Віктор Арго, Гайлейн Сент-Онджей, Джеремі Систо, Деніел Магдер, Моніт Мазур

Сюжет:
Шерон (Дженніфер Лопес) працює в поліції і настільки віддана роботі, що досі живе сама. У неї напружені стосунки з батьками і братом, вона потребує любові та розуміння, і знаходить їх в особі незнайомця на ім'я Кетч (Джеймс Кевізел), який рятує їй життя під час невдалої поліцейської операції. Кетч допомагає людям, і незабаром Шерон розуміє, що все це йде від якоїсь трагедії, що сталася в його минулому.


Тривалість: 01:42:52
Якість: [Hurtom, ріп з 1080p Amazon]
Відео:
кодек:
розмір кадру: 720 х 400
бітрейт: 1820 кб/с

Аудіо # 1:
мова: українська
переклад: багатоголосий закадровий
кодек: 2.0
бітрейт: 192 кб/с
Info
Код:

General
Complete name               : Angel Eyes (2001) [Ukr] [Hurtom].avi
Format                      : AVI
Format/Info                 : Audio Video Interleave
File size                   : 1.45 GiB
Duration                    : 1 h 42 min
Overall bit rate            : 2 021 kb/s
Movie name                  : Очі янгола / Angel Eyes (2001) [Ukr] [Hurtom]
Writing application         : VirtualDubModUkr 1.5.10.2 (build 2542/release)
Writing library             : VirtualDubMod build 2542/release

Video
ID                          : 0
Format                      : MPEG-4 Visual
Format profile              : Advanced [email protected]
Format settings             : BVOP1
Format settings, BVOP       : 1
Format settings, QPel       : No
Format settings, GMC        : No warppoints
Format settings, Matrix     : Default (MPEG)
Codec ID                    :
Codec ID/Hint               :
Duration                    : 1 h 42 min
Bit rate                    : 1 820 kb/s
Width                       : 720 pixels
Height                      : 400 pixels
Display aspect ratio        : 16:9
Frame rate                  : 24.000 FPS
Color space                 : YUV
Chroma subsampling          : 4:2:0
Bit depth                   : 8 bits
Scan type                   : Progressive
Compression mode            : Lossy
Bits/(Pixel*Frame)          : 0.263
Stream size                 : 1.31 GiB (90%)
Writing library             : 67

Audio
ID                          : 1
Format                      : AC-3
Format/Info                 : Audio Coding 3
Commercial name             : Dolby Digital
Codec ID                    : 2000
Duration                    : 1 h 42 min
Bit rate mode               : Constant
Bit rate                    : 192 kb/s
Channel(s)                  : 2 channels
Channel layout              : L R
Sampling rate               : 48.0 kHz
Frame rate                  : 31.250 FPS (1536 SPF)
Bit depth                   : 16 bits
Compression mode            : Lossy
Stream size                 : 141 MiB (10%)
Alignment                   : Split across interleaves
Interleave, duration        : 42  ms (1.00 video frame)
Interleave, preload duratio : 500  ms
Service kind                : Complete Main




Джерело:
Подяка п.kryk-v.ya. за українську доріжку та реліз-першоджерело, а також п.mrgalser'у за український постер.


Срібний реліз (на рейтинг впливає 50% завантаженого)
 Трекер:    Зареєстрований   

Завантажити / скачати фільм українською



відео для новачків



 Зареєстрований:   2019-09-05 16:50
 Розмір:   1.45 GB 
 Оцінка фільму:   9.5/10 (Голосів: 13)
 ЗАЛИШАЙТЕСЬ ЯКОМОГА ДОВШЕ НА РОЗДАЧІ! ЗАВАНТАЖИВ САМ - ДАЙ ЗАВАНТАЖИТИ ІНШИМ!
   
Інші релізи
   Очі янгола / Angel Eyes (2001) 1080p Ukr/Eng | Sub Eng kryk-v.ya.  1 / 0   8.58 GB   2019-08-04 20:54 
Will Smit 
Частий відвідувач


З нами з: 13.04.19
Востаннє: 11.10.19
Повідомлень: 42

2019-09-06 00:54  
Мда ;-) Дженнiфер тодi в 2001-х була дуже хороша ;-)
MutuLI 
Відео Гуртом - фільмокрай
Відео Гуртом - фільмокрай


З нами з: 08.03.09
Востаннє: 18.10.19
Повідомлень: 1513

2019-09-06 20:01  
фільм так собі, один раз подивитись можна. Ну це явно не триллер, більше драма.
Anonymous 







2019-09-06 20:03  
MutuLI написано:
Ну це явно не триллер, більше драма.

Скопіював з попереднього реліза не перевіривши, дякую, виправив.

Semeshchenko 
Новенький


З нами з: 19.07.16
Востаннє: 17.10.19
Повідомлень: 8

2019-09-07 23:01  
Як на мене дуже гарний фільм - гра акторів чудова. Були очі на мокрому місці декілька разів.
Ваш часовий пояс: GMT + 2 Години

Нова тема   Відповісти