Скелелаз / Cliffhanger (1993) [Remastered] AVC 2xUkr/Eng | Sub Eng

Нові коментарі

Нова тема   Відповісти
Автор Повідомлення
Anonymous 







2019-09-05 10:15  
Скелелаз / Cliffhanger (1993) [Remastered] AVC 2xUkr/Eng | Sub Eng

Скелелаз / Cliffhanger (1993) [Remastered] AVC 2xUkr/Eng | Sub Eng
Ще постер та обкладинка:



Скелелаз / Cliffhanger (1993) [Remastered] AVC 2xUkr/Eng | Sub Eng


Жанр: бойовик, трилер, пригодницький
Країна: США, Італія, Франція



Кінокомпанія: Carolco Pictures, Canal+, Pioneer
Режисер: Ренні Гарлін / Renny Harlin
Актори: Сильвестер Сталлоне / Sylvester Stallone, Джон Літґоу / John Lithgow, Майкл Рукер / Michael Rooker, Пол Вінфілд / Paul Winfield та інші

Сюжет:
У горах після снігової лавини загубилися п'ятеро людей. На пошуки вирушає один з найкращих альпіністів – Гейб Вокер. Несподівано він усвідомлює, що його навмисне заманили в гори для виконання іншого завдання.
Тепер очевидно, що Гейб стане небажаним свідком, якого позбудуться без вагань. Але так просто віддавати своє життя він не збирається, і оголошує війну банді озброєних до зубів бойовиків на чолі з міжнародним терористом Еріком Кваленом...


Рейтинг MPAA: R - особам до 17 років обов'язкова присутність батьків або дорослого опікуна
Вікова категорія: 16+

Тривалість: 01:52:30
Якість: AVC [ріп з 4K Remastered - з нового скану плівки для 4K UHD Blu-ray 2018 року, якість набагато краща за попередні трансфери]
Порівняння якості старого US трансфера та цього нового Remastered скану (UK):
Відео:
кодек:
розмір кадру: 1024x432
бітрейт: 2400 кб/с

Аудіо # 1:
мова: українська
переклад: професійний дубльований | Cinema Sound Production
кодек: 2.0
бітрейт: 192 кб/с
примітка: з запису 25.05.2019, DVB-T2, спектр 18 кГц

Аудіо # 2:
мова: українська
переклад: двоголосий закадровий
ролі озвучили: Олександр Завальський та Наталя Ярошенко
кодек: 2.0
бітрейт: 192 кб/с
примітка: по 1+1 та ТЕТ транслювався ідентичний переклад

Аудіо # 3:
мова: англійська
переклад: оригінал
кодек: 5.1
бітрейт: 448 кб/с

Субтитри:
мова: англійська
тип: програмні (м'які)
формат: *.srt

Збережено оригінальні розділи, як на Blu-ray.
Info та log
Код:

Complete name               : Cliffhanger (1993) [Remastered] [2xUkr,Eng sub.Eng] AVC [Hurtom].
Format                      :
Format version              : Version 4
File size                   : 2.54 GiB
Duration                    : 1 h 52 min
Overall bit rate            : 3 231 kb/s
Movie name                  : Скелелаз / Cliffhanger (1993) [Remastered] [2xUkr,Eng sub.Eng] AVC [Hurtom]
Encoded date                : UTC 2019-09-05 07:28:05
Writing application         : v37.0.0 ('Leave It') 64-bit
Writing library             : libebml v1.3.9 + v1.5.2
Cover                       : Yes
Attachments                 : cover.jpg

Video
ID                          : 1
Format                      : AVC
Format/Info                 : Advanced Video Codec
Format profile              : [email protected]
Format settings             : CABAC / 11 Ref Frames
Format settings, CABAC      : Yes
Format settings, Reference  : 11 frames
Codec ID                    : V_MPEG4/ISO/AVC
Duration                    : 1 h 52 min
Bit rate                    : 2 400 kb/s
Width                       : 1 024 pixels
Height                      : 432 pixels
Display aspect ratio        : 2.40:1
Frame rate mode             : Constant
Frame rate                  : 24.000 FPS
Color space                 : YUV
Chroma subsampling          : 4:2:0
Bit depth                   : 8 bits
Scan type                   : Progressive
Bits/(Pixel*Frame)          : 0.226
Stream size                 : 1.88 GiB (74%)
Title                       : Скелелаз / Cliffhanger (1993) [Remastered] AVC [Remastered, Alukard14]
Writing library             : core 148 r2638 7599210
Encoding settings           : cabac=1 / ref=11 / deblock=1:-3:-3 / analyse=0x3:0x113 / me=umh / subme=11 / psy=1 / psy_rd=1.00:0.00 / mixed_ref=1 / me_range=48 / chroma_me=1 / trellis=2 / 8x8dct=1 / cqm=0 / deadzone=21,11 / fast_pskip=0 / chroma_qp_offset=-2 / threads=9 / lookahead_threads=1 / sliced_threads=0 / nr=0 / decimate=0 / interlaced=0 / bluray_compat=0 / constrained_intra=0 / bframes=9 / b_pyramid=2 / b_adapt=0 / b_bias=0 / direct=3 / weightb=1 / open_gop=0 / weightp=2 / keyint=240 / keyint_min=24 / scenecut=40 / intra_refresh=0 / rc_lookahead=40 / rc=2pass / mbtree=0 / bitrate=2400 / ratetol=1.0 / qcomp=0.60 / qpmin=0 / qpmax=69 / qpstep=2 / cplxblur=20.0 / qblur=0.5 / vbv_maxrate=14000 / vbv_bufsize=14000 / nal_hrd=none / filler=0 / ip_ratio=1.40 / pb_ratio=1.30 / aq=1:1.00
Language                    : English
Default                     : Yes
Forced                      : No

Audio #1
ID                          : 2
Format                      : AC-3
Format/Info                 : Audio Coding 3
Commercial name             : Dolby Digital
Codec ID                    : A_AC3
Duration                    : 1 h 52 min
Bit rate mode               : Constant
Bit rate                    : 192 kb/s
Channel(s)                  : 2 channels
Channel layout              : L R
Sampling rate               : 48.0 kHz
Frame rate                  : 31.250 FPS (1536 SPF)
Bit depth                   : 16 bits
Compression mode            : Lossy
Stream size                 : 155 MiB (6%)
Title                       : DUB [NLO TV] 2.0 192 Kbps
Language                    : Ukrainian
Service kind                : Complete Main
Default                     : Yes
Forced                      : No

Audio #2
ID                          : 3
Format                      : AC-3
Format/Info                 : Audio Coding 3
Commercial name             : Dolby Digital
Codec ID                    : A_AC3
Duration                    : 1 h 52 min
Bit rate mode               : Constant
Bit rate                    : 192 kb/s
Channel(s)                  : 2 channels
Channel layout              : L R
Sampling rate               : 48.0 kHz
Frame rate                  : 31.250 FPS (1536 SPF)
Bit depth                   : 16 bits
Compression mode            : Lossy
Stream size                 : 155 MiB (6%)
Title                       : DVO [2+2] 2.0 192 Kbps
Language                    : Ukrainian
Service kind                : Complete Main
Default                     : No
Forced                      : No

Audio #3
ID                          : 4
Format                      : AC-3
Format/Info                 : Audio Coding 3
Commercial name             : Dolby Digital
Codec ID                    : A_AC3
Duration                    : 1 h 52 min
Bit rate mode               : Constant
Bit rate                    : 448 kb/s
Channel(s)                  : 6 channels
Channel layout              : L R C LFE Ls Rs
Sampling rate               : 48.0 kHz
Frame rate                  : 31.250 FPS (1536 SPF)
Bit depth                   : 16 bits
Compression mode            : Lossy
Stream size                 : 361 MiB (14%)
Title                       : Original, 5.1 448 Kbps
Language                    : English
Service kind                : Complete Main
Default                     : No
Forced                      : No

Text
ID                          : 5
Format                      : UTF-8
Codec ID                    : S_TEXT/UTF8
Codec ID/Info               : UTF-8 Plain Text
Duration                    : 1 h 42 min
Bit rate                    : 49 b/s
Count of elements           : 1051
Stream size                 : 37.5 KiB (0%)
Language                    : English
Default                     : No
Forced                      : No

Menu
00:00:00.000                : en:01
00:11:50.500                : en:02
00:18:53.875                : en:03
00:30:00.875                : en:04
00:38:02.375                : en:05
00:47:21.291                : en:06
00:57:25.791                : en:07
01:07:35.250                : en:08
01:14:53.375                : en:09
01:25:19.666                : en:10
01:32:02.791                : en:11
01:44:34.208                : en:12

Код:
[info]: frame I:2175 Avg QP:16.58 size: 60809
[info]: frame P:21872 Avg QP:19.43 size: 26369
[info]: frame B:137964 Avg QP:21.79 size: 9515
[info]: consecutive B-frames: 4.8% 0.3% 0.4% 0.5% 0.5% 0.8% 0.8% 0.8% 2.1% 88.8%
[info]: mb I I16..4: 4.5% 82.2% 13.3%
[info]: mb P I16..4: 0.6% 14.5% 1.5% P16..4: 28.9% 37.4% 13.3% 0.0% 0.0% skip: 3.7%
[info]: mb B I16..4: 0.1% 1.3% 0.2% B16..8: 35.4% 24.2% 4.9% direct: 7.1% skip:26.8% L0:45.6% L1:43.3% BI:11.1%
[info]: 8x8 transform intra:84.5% inter:58.7%
[info]: direct mvs spatial:99.4% temporal:0.6%
[info]: coded y,uvDC,uvAC intra: 91.7% 71.2% 36.5% inter: 33.4% 15.3% 2.1%
[info]: i16 v,h,dc,p: 42% 12% 7% 39%
[info]: i8 v,h,dc,ddl,ddr,vr,hd,vl,hu: 6% 6% 7% 11% 16% 14% 15% 12% 14%
[info]: i4 v,h,dc,ddl,ddr,vr,hd,vl,hu: 8% 7% 6% 9% 17% 15% 15% 11% 13%
[info]: i8c dc,h,v,p: 34% 31% 18% 16%
[info]: Weighted P-Frames: Y:4.7% UV:1.1%
[info]: ref P L0: 47.7% 10.7% 17.0% 7.0% 5.2% 3.5% 3.0% 1.7% 1.5% 1.2% 1.1% 0.4% 0.0%
[info]: ref B L0: 78.1% 10.3% 4.8% 2.4% 1.6% 1.2% 0.9% 0.5% 0.3% 0.1%
[info]: ref B L1: 93.2% 6.8%
[info]: kb/s:2395.91



Джерела та подяки: &
Над українськими доріжками працювали: Bohdan237, igor911, karvai0, Romario_O, robotron005. Українські постери: Zubr139, Shkval.

Особиста оцінка: 8 - мені сподобалося


Срібний реліз (на рейтинг впливає 50% завантаженого)
 Трекер:    Зареєстрований   

Завантажити / скачати фільм українською



відео для новачків



 Зареєстрований:   2019-09-05 16:26
 Розмір:   2.54 GB 
 Оцінка фільму:   9.8/10 (Голосів: 17)
 ЗАЛИШАЙТЕСЬ ЯКОМОГА ДОВШЕ НА РОЗДАЧІ! ЗАВАНТАЖИВ САМ - ДАЙ ЗАВАНТАЖИТИ ІНШИМ!
   
Інші релізи
   Скелелаз / Cliffhanger (1993) [Remastered] 720p 2xUkr/Eng | Sub Eng igor911  5 / 0   5.95 GB   2019-05-30 22:45 
   Скелелаз / Cliffhanger (1993) [Remastered] 1080p 2xUkr/Eng | Sub Eng igor911  5 / 0   10.19 GB   2019-05-30 22:10 
   Скелелаз / Cliffhanger (1993) AVC 2xUkr/Eng | Sub Eng omm  3 / 0   2.17 GB   2019-05-30 21:50 
   Скелелаз / Cliffhanger (1993) Remux 1080p 2xUkr/Eng | Sub Eng/Ger kryk-v.ya.  2 / 0   27.23 GB   2019-05-28 10:13 
   Скелелаз / Cliffhanger (1993) Ukr/Eng robotron005  8 / 0   2.03 GB   2012-10-17 18:42 
GliBond 
Частий відвідувач


З нами з: 06.10.16
Востаннє: 18.10.19
Повідомлень: 49

2019-09-05 10:37  
Дивився пів року тому. Тепер хоч знову дивитися) Фільм непоганий.
Koful 
VIP


З нами з: 05.12.16
Востаннє: 16.10.19
Повідомлень: 275

2019-09-05 12:35  
Ух-ти! З задоволенням перегляну в кращій якості та ще й у дубляжі!
bot 
робот


З нами з: 30.09.07
Востаннє: 26.05.05
Повідомлень: 22315

2019-09-05 16:26  
Тему перенесено з Анонси релізів до форуму Фільми


igor911

olimpian1 
Поважний учасник


З нами з: 19.10.13
Востаннє: 18.10.19
Повідомлень: 196

2019-09-07 12:54  
Дубляж! Оце круто!
qwasasqw 
Поважний учасник


З нами з: 01.01.11
Востаннє: 18.10.19
Повідомлень: 220

2019-09-07 12:56  
Тут найкраща 2-га доріжка..Дякую за якість.Фільм дитинства.
userluser 
Новенький


З нами з: 24.08.19
Востаннє: 18.10.19
Повідомлень: 3

2019-09-11 03:02  
Фільм-Клас. Хто може пояснити,як роздавати?Просто завантажити і не закривати програму??? чи треба шось настроювати? (не всім бути інтернеткомпогеніями). Просто комп постійно працює (поки в місті не вирубують електрику. І місце на жд є. ДУЖЕ ПОГАНО КАЧАЄТЬСЯ З ЦЬОГО САЙТУ.А САЙТ-Суперовий. Не ображайтесь,будь ласка
Anonymous 







2019-09-11 08:34  
userluser написано:
як роздавати? Просто завантажити і не закривати програму?

Так. Не видаляти торент і файл релізу якомога довше, налаштувати торент-клієнт на автоматичний запуск при ввімкненні компа. Перевірити, чи не стоїть обмеження на віддачу в торент-клієнті.
userluser написано:
ДУЖЕ ПОГАНО КАЧАЄТЬСЯ З ЦЬОГО САЙТУ

З сайту вантажиться ЛИШЕ невеличкий торент-файл. Обмін самими файлами релізів відбувається між КОРИСТУВАЧАМИ напряму, тому ваша швидкість завантаження залежить від швидкості вашого інтернету, кількості користувачів на роздачі, їх швидкості на віддачу та від того, чи відкриті в вас та в них порти для вхідних з'єднань (у користувачів з "сірою" ip-адресою є проблеми з підключенням між собою).

Ваш часовий пояс: GMT + 2 Години

Нова тема   Відповісти