Товариство мертвих поетів / Dead Poets Society (1989) 1080p H.265 2xUkr/Eng | Sub Ukr/Eng

Нові коментарі

Нова тема   Відповісти
Автор Повідомлення
Anonymous 







2019-09-04 21:54  
Товариство мертвих поетів / Dead Poets Society (1989) 1080p H.265 2xUkr/Eng | Sub Ukr/Eng

Товариство мертвих поетів / Dead Poets Society (1989) 1080p H.265 2xUkr/Eng | Sub Ukr/Eng


Жанр: драма
Країна: США
Кінокомпанія: Touchstone Pictures, Silver Screen Partners IV
Режисер: Пітер Вір / Peter Weir
Актори: Робін Вільямс (Robin Williams), Роберт Шон Леонард (Robert Sean Leonard), Ітан Гоук (Ethan Hawke), Джош Чарльз (Josh Charles), Ґейл Генсен (Gale Hansen) та інші

Сюжет:
У фільмі йдеться про вчителя англійської мови та літератури, який надихає своїх учнів змінити бодай щось у своєму житті і пробуджує у них інтерес до поезії та літератури. Дія фільму відбувається у підготовчій школі міста Велтон у штаті Вермонт. Джон Кітінґ – новий викладач англійської мови у консервативному коледжі. Кітінґ надихає учнів відродити «Товариство мертвих поетів», а на своїх заняттях допомагає кожному юнакові знайти свій власний голос у безликому хорі, відкрити для себе прекрасний світ природи та поезії. Результат боротьби студентів за право самовираження — трагічний, а цей фільм нікого не залишає байдужим.

Тривалість: 02:08:44
Якість:

Відео:
кодек: H.265 (HEVC)
розмір кадру: 1920 x 1036
бітрейт: 11 651 кб/с
бітова глибина: 10 біт

Увага! Перед завантаженням переконайтесь, що ваш пристрій відтворення (та/або ПЗ) підтримує H.265 (HEVC)

Аудіо # 1:
мова: українська
переклад: багатоголосий закадровий | студія «НеЗупиняйПродакшн»
кодек: 5.1
бітрейт: 1510 кб/с

Аудіо # 2:
мова: українська
переклад: одноголосий закадровий | UkrVoiceTeam | ostipko
кодек: AC-3 5.1
бітрейт: 384 кб/с

Аудіо # 3:
мова: англійська
переклад: оригінал
кодек: 5.1
бітрейт: 1510 кб/с

Субтитри # 1-2: (Forced, Full)
мова: українська
тип: програмні (м'які)
формат: *.srt

Субтитри # 3-5: (Full, SDH, Commentaries)
мова: англійська
тип: програмні (м'які)
формат: *.srt


Info
Код:
General
Unique ID                                : 318885752109284356454554559183729055011 (0xEFE7297122DEC55939B7FB8386F1D523)
Complete name                            : Dead Poets Society (1989) 1080p H.265 [2xUKR_ENG] [Hurtom].
Format                                   :
Format version                           : Version 4
File size                                : 13.6 GiB
Duration                                 : 2 h 10 min
Overall bit rate                         : 14.9 Mb/s
Movie name                               : Товариство мертвих поетів / Dead Poets Society (1989)
Encoded date                             : UTC 2019-09-04 07:23:07
Writing application                      : v20.0.0 ('I Am The Sun') 64-bit
Writing library                          : libebml v1.3.5 + v1.4.8
Cover                                    : Yes
Attachments                              : cover.jpg / cover.jpg

Video
ID                                       : 1
Format                                   : HEVC
Format/Info                              : High Efficiency Video Coding
Format profile                           : Main [email protected]@High
Codec ID                                 : V_MPEGH/ISO/HEVC
Duration                                 : 2 h 8 min
Bit rate                                 : 11.7 Mb/s
Width                                    : 1 920 pixels
Height                                   : 1 036 pixels
Display aspect ratio                     : 1.85:1
Frame rate mode                          : Constant
Frame rate                               : 23.976 (24000/1001) FPS
Color space                              : YUV
Chroma subsampling                       : 4:2:0
Bit depth                                : 10 bits
Bits/(Pixel*Frame)                       : 0.244
Stream size                              : 10.5 GiB (77%)
Title                                    : Товариство мертвих поетів / Dead Poets Society (1989)
Writing library                          : x265 3.1.2+1-76650bab70f9:[Windows][MSVC 1922][64 bit] 10bit
Encoding settings                        : cpuid=1111039 / frame-threads=4 / numa-pools=16 / wpp / no-pmode / no-pme / no-psnr / no-ssim / log-level=2 / input-csp=1 / input-res=1920x1036 / interlace=0 / total-frames=185195 / level-idc=41 / high-tier=1 / uhd-bd=0 / ref=5 / no-allow-non-conformance / no-repeat-headers / annexb / no-aud / no-hrd / info / hash=0 / no-temporal-layers / open-gop / min-keyint=23 / keyint=240 / gop-lookahead=0 / bframes=13 / b-adapt=2 / b-pyramid / bframe-bias=0 / rc-lookahead=60 / lookahead-slices=1 / scenecut=40 / radl=0 / no-splice / no-intra-refresh / ctu=32 / min-cu-size=8 / rect / amp / max-tu-size=32 / tu-inter-depth=4 / tu-intra-depth=4 / limit-tu=1 / rdoq-level=2 / dynamic-rd=0.00 / no-ssim-rd / signhide / no-tskip / nr-intra=0 / nr-inter=0 / no-constrained-intra / no-strong-intra-smoothing / max-merge=5 / limit-refs=3 / limit-modes / me=3 / subme=7 / merange=57 / temporal-mvp / weightp / weightb / no-analyze-src-pics / deblock=-2:-2 / no-sao / no-sao-non-deblock / rd=6 / no-early-skip / no-rskip / no-fast-intra / no-tskip-fast / no-cu-lossless / no-b-intra / no-splitrd-skip / rdpenalty=0 / psy-rd=1.85 / psy-rdoq=1.00 / no-rd-refine / no-lossless / cbqpoffs=0 / crqpoffs=0 / rc=crf / crf=19.0 / qcomp=0.62 / qpstep=4 / stats-write=0 / stats-read=0 / vbv-maxrate=50000 / vbv-bufsize=50000 / vbv-init=0.9 / crf-max=0.0 / crf-min=0.0 / ipratio=1.40 / pbratio=1.30 / aq-mode=1 / aq-strength=1.00 / no-cutree / zone-count=0 / no-strict-cbr / qg-size=32 / no-rc-grain / qpmax=69 / qpmin=0 / no-const-vbv / sar=1 / overscan=0 / videoformat=5 / range=0 / colorprim=1 / transfer=1 / colormatrix=1 / chromaloc=0 / display-window=0cll=0,0 / min-luma=0 / max-luma=1023 / log2-max-poc-lsb=8 / vui-timing-info / vui-hrd-info / slices=1 / no-opt-qp-pps / no-opt-ref-list-length-pps / no-multi-pass-opt-rps / scenecut-bias=0.05 / no-opt-cu-delta-qp / no-aq-motion / no-hdr / no-hdr-opt / no-dhdr10-opt / no-idr-recovery-sei / analysis-reuse-level=5 / scale-factor=0 / refine-intra=0 / refine-inter=0 / refine-mv=0 / refine-ctu-distortion=0 / no-limit-sao / ctu-info=0 / no-lowpass-dct / refine-analysis-type=0 / copy-pic=1 / max-ausize-factor=1.0 / no-dynamic-refine / no-single-sei / hevc-aq / no-svt / no-field / qp-adaptation-range=2.00
Language                                 : English
Default                                  : Yes
Forced                                   : No
Color range                              : Limited
Color primaries                          : BT.709
Transfer characteristics                 : BT.709
Matrix coefficients                      : BT.709

Audio #1
ID                                       : 2
Format                                   :
Format/Info                              : Digital Theater Systems
Codec ID                                 : A_DTS
Duration                                 : 2 h 10 min
Bit rate mode                            : Constant
Bit rate                                 : 1 509 kb/s
Channel(s)                               : 6 channels
Channel layout                           : C L R Ls Rs LFE
Sampling rate                            : 48.0 kHz
Frame rate                               : 93.750 FPS (512 SPF)
Bit depth                                : 24 bits
Compression mode                         : Lossy
Stream size                              : 1.37 GiB (10%)
Title                                    : / 5.1 Ch / 1509 kbps / БЗ / НеЗупиняйПродакшн
Language                                 : Ukrainian
Default                                  : Yes
Forced                                   : Yes

Audio #2
ID                                       : 3
Format                                   : AC-3
Format/Info                              : Audio Coding 3
Commercial name                          : Dolby Digital
Codec ID                                 : A_AC3
Duration                                 : 2 h 10 min
Bit rate mode                            : Constant
Bit rate                                 : 384 kb/s
Channel(s)                               : 6 channels
Channel layout                           : L R C LFE Ls Rs
Sampling rate                            : 48.0 kHz
Frame rate                               : 31.250 FPS (1536 SPF)
Bit depth                                : 16 bits
Compression mode                         : Lossy
Stream size                              : 357 MiB (3%)
Title                                    : / 5.1 Ch / 384 kbps / ОЗ / UkrVoiceTeam
Language                                 : Ukrainian
Service kind                             : Complete Main
Default                                  : No
Forced                                   : No

Audio #3
ID                                       : 4
Format                                   :
Format/Info                              : Digital Theater Systems
Codec ID                                 : A_DTS
Duration                                 : 2 h 10 min
Bit rate mode                            : Constant
Bit rate                                 : 1 509 kb/s
Channel(s)                               : 6 channels
Channel layout                           : C L R Ls Rs LFE
Sampling rate                            : 48.0 kHz
Frame rate                               : 93.750 FPS (512 SPF)
Bit depth                                : 24 bits
Compression mode                         : Lossy
Stream size                              : 1.37 GiB (10%)
Title                                    : / 5.1 Ch / 1509 kbps / Original
Language                                 : English
Default                                  : No
Forced                                   : No

Text #1
ID                                       : 5
Format                                   : UTF-8
Codec ID                                 : S_TEXT/UTF8
Codec ID/Info                            : UTF-8 Plain Text
Duration                                 : 1 h 36 min
Bit rate                                 : 0 b/s
Count of elements                        : 5
Stream size                              : 390 Bytes (0%)
Title                                    : Forced
Language                                 : Ukrainian
Default                                  : Yes
Forced                                   : Yes

Text #2
ID                                       : 6
Format                                   : UTF-8
Codec ID                                 : S_TEXT/UTF8
Codec ID/Info                            : UTF-8 Plain Text
Duration                                 : 2 h 4 min
Bit rate                                 : 108 b/s
Count of elements                        : 1640
Stream size                              : 98.7 KiB (0%)
Title                                    : Full
Language                                 : Ukrainian
Default                                  : No
Forced                                   : No

Text #3
ID                                       : 7
Format                                   : UTF-8
Codec ID                                 : S_TEXT/UTF8
Codec ID/Info                            : UTF-8 Plain Text
Duration                                 : 2 h 4 min
Bit rate                                 : 69 b/s
Count of elements                        : 1739
Stream size                              : 63.3 KiB (0%)
Title                                    : Full
Language                                 : English
Default                                  : No
Forced                                   : No

Text #4
ID                                       : 8
Format                                   : UTF-8
Codec ID                                 : S_TEXT/UTF8
Codec ID/Info                            : UTF-8 Plain Text
Duration                                 : 2 h 4 min
Bit rate                                 : 69 b/s
Count of elements                        : 1739
Stream size                              : 63.3 KiB (0%)
Title                                    : SDH
Language                                 : English
Default                                  : No
Forced                                   : No

Text #5
ID                                       : 9
Format                                   : UTF-8
Codec ID                                 : S_TEXT/UTF8
Codec ID/Info                            : UTF-8 Plain Text
Duration                                 : 2 h 8 min
Bit rate                                 : 116 b/s
Count of elements                        : 2345
Stream size                              : 109 KiB (0%)
Title                                    : Commentary with director, cinematographer and writer
Language                                 : English
Default                                  : No
Forced                                   : No

Menu
00:00:00.000                             : :Opening Titles / A New Semester
00:11:17.635                             : :Seize The Day
00:21:03.637                             : :Understanding Poetry
00:36:09.501                             : :The Reconvening Of The Dead Poets Society
00:42:59.118                             : :A Different Perspective
00:50:28.442                             : :Chances
01:03:38.189                             : :Find Your Own Walk
01:11:33.414                             : :Unorthodox Ideas
01:23:53.153                             : :Neils's Dream
02:00:07.575                             : :"Oh Captain, My Captain" / End Credits
Світлини




Джерело: &
Особиста оцінка: 0 - не дивився


Авторський реліз (завантажувати можна без реєстрації)
 Трекер:    Зареєстрований   

Завантажити / скачати фільм українською



відео для новачків



 Зареєстрований:   2019-09-04 21:54
 Розмір:   13.57 GB 
 Оцінка фільму:   10/10 (Голосів: 4)
   
Інші релізи
   Товариство мертвих поетів / Dead Poets Society (1989) НеЗупиняйПродакшн  8 / 0   1.46 GB   2019-08-05 14:59 
   Товариство мертвих поетів / Dead Poets Society (1989) AVC Ukr/Eng | Sub Eng НеЗупиняйПродакшн  17 / 0   2.19 GB   2019-08-05 14:58 
   Товариство мертвих поетів / Dead Poets Society (1989) 720p Ukr/Eng | Sub Eng НеЗупиняйПродакшн  3 / 0   8.29 GB   2019-08-05 14:58 
   Товариство мертвих поетів / Dead Poets Society (1989) Remux 1080p Ukr/Eng | Sub Eng НеЗупиняйПродакшн  5 / 0   27.55 GB   2019-08-05 14:58 
   Товариство мертвих поетів / Dead Poets Society (1989) 1080p Ukr/Eng | Sub Eng НеЗупиняйПродакшн  7 / 0   15.24 GB   2019-08-05 14:57 
   Спілка мертвих поетів (Товариство мертвих поетів) / Dead Poets Society (1989) 720p Ukr/Eng | Sub Ukr/Eng igor911  4 / 0   6.56 GB   2018-07-19 18:43 
   Спілка мертвих поетів (Товариство мертвих поетів) / Dead Poets Society (1989) 1080p Ukr/Eng Ukr Voice Team  2 / 0   13.46 GB   2014-03-08 15:04 
   Спілка мертвих поетів (Товариство мертвих поетів) / Dead Poets Society (1989) AVC Ukr/Eng | sub Ukr Ukr Voice Team  7 / 0   1.74 GB   2014-03-08 10:34 
   Спілка мертвих поетів (Товариство мертвих поетів) / Dead Poets Society (1989) AVC Eng | Sub Ukr/Eng Hurtomivets'  1 / 0   1.73 GB   2014-01-03 15:18 
Ваш часовий пояс: GMT + 2 Години

Нова тема   Відповісти