Барбі: Пригоди в будинку мрії / Barbie Dreamhouse Adventure (Сезон 1-3) (2018) 1080p Ukr/Eng | sub Eng

Нові коментарі

Нова тема   Відповісти
Автор Повідомлення
sergiyko.5 
Забанено
Забанено


З нами з: 25.02.16
Востаннє: 29.10.20
Повідомлень: 3648

2019-09-04 20:45  
Барбі: Пригоди в будинку мрії / Barbie Dreamhouse Adventure (Сезон 1-3) (2018) 1080p Ukr/Eng | sub Eng

Барбі: Пригоди в будинку мрії / Barbie Dreamhouse Adventure (Сезон 1-3) (2018) 1080p Ukr/Eng | sub Eng

Жанр: пригоди, сімейний
Країна: США
Кінокомпанія: Mattel Creations
Режисер: Ірен Лезер

Сюжет:
В улюбленої та найкрасивішої Барбі кращі в світі подруги, найкрасивіший одяг, а будинок… це справжній будинок мрії! Усміхнена блондинка живе не тільки зоряним життям, зустрічаючись з красунчиком Кеном, відвідуючи бутики й дорогі ресторани. Барбі любить допомагати людям і завжди готова прийти на допомогу. За це її люблять і цінують оточуючі. Вона чудова господиня, з задоволенням готує та пригощає рідних і друзів. Звісно, вона користується тільки кращим посудом і дорогою технікою. Красуня обожнює чепуритися й виглядати надзвичайно. Незважаючи на стереотипи, що склали про блондинок, Барбі з легкістю підтримає будь-яку світську бесіду. Вона багато читає, подорожує й займається всім, чим забажає. Можливо, у Барбі ідеальне життя, але ж лялька всього досягла наполегливою працею й своєю цілеспрямованістю, завдяки яким зуміла завоювати весь світ!




Тривалість: 1 серія: 22:00 (цілком серій: 21 з 26)
Якість:

Відео: кодек: розмір кадру: 1920 х 1080 бітрейт: 2000-4000 кб/с
Аудіо 1: мова: українська переклад: професійний дубльований кодек: 2.0 бітрейт: 192 кб/с
Озвучення:
Аудіо 2: мова: англійська переклад: оригінал кодек: 5.1 бітрейт: 384 кб/с
Субтитри: мова: англійська тип: програмні (м'які) формат: *.srt

Примітка: відсутній запис звуку до 1-4 серій першого сезону та 5 серія третього, після повтору торент буде доповнений.
Перелік серій:
Сезон 1

05.Baby Sister Babysitter
06.Road Trip
07.Picture Perfect Cake
08.The Roof Fairy

Сезон 2
01.Balancing Act
02.Life Can Be a Dream
03.Trey Is for Horses
04.A Dreamhouse Puppy Tale
05.Time Will Tell
06.Putts for Pups
07.Pied Pupper
08.A Day at the Beach
09.A Delicate Situation

Сезон 3
01.Virtually Famous
02.All Dogs Go to the Beach
03.The Ballad of Windy Willows
04.Room Swap

06.Totally Spying
07.Barbie Roberts-Undercover Mermaid.Part 1
08.Barbie Roberts-Undercover Mermaid.Part 2
09.A Dog's Day in Court
Про файл:
General
Unique ID : 136506079079996072515111475749700181434 (0x66B21D51C78B300FBBB1328AA51F1DBA)
Complete name : D:\Documents\Torrents\MULTSER\Barbie Dreamhouse Adventures 1080p \Barbie Dreamhouse Adventures S02 1080p \S02E01.Balancing Act.1080p..
Format :
Format version : Version 4
File size : 403 MiB
Duration : 22 min 1 s
Overall bit rate : 2 556 kb/s
Movie name : Barbie Dreamhouse Adventures S02 1080p by sergiyko
Encoded date : UTC 2019-09-04 17:19:19
Writing application : v36.0.0 ('Is That Jazz?') 64-bit
Writing library : libebml v1.3.9 + v1.5.2

Video
ID : 1
Format : AVC
Format/Info : Advanced Video Codec
Format profile : [email protected]
Format settings : CABAC / 3 Ref Frames
Format settings, CABAC : Yes
Format settings, Reference : 3 frames
Codec ID : V_MPEG4/ISO/AVC
Duration : 22 min 1 s
Bit rate : 1 914 kb/s
Width : 1 920 pixels
Height : 1 080 pixels
Display aspect ratio : 16:9
Frame rate mode : Constant
Frame rate : 23.976 (24000/1001) FPS
Color space : YUV
Chroma subsampling : 4:2:0
Bit depth : 8 bits
Scan type : Progressive
Bits/(Pixel*Frame) : 0.038
Stream size : 302 MiB (75%)
Title : S02E01.Balancing Act
Language : English
Default : Yes
Forced : No

Audio #1
ID : 2
Format : AC-3
Format/Info : Audio Coding 3
Commercial name : Dolby Digital
Codec ID : A_AC3
Duration : 22 min 1 s
Bit rate mode : Constant
Bit rate : 192 kb/s
Channel(s) : 2 channels
Channel layout : L R
Sampling rate : 48.0 kHz
Frame rate : 31.250 FPS (1536 SPF)
Bit depth : 16 bits
Compression mode : Lossy
Stream size : 30.3 MiB (8%)
Title : DUB | ПлюсПлюс
Language : Ukrainian
Service kind : Complete Main
Default : Yes
Forced : Yes

Audio #2
ID : 3
Format : AC-3
Format/Info : Audio Coding 3
Commercial name : Dolby Digital
Codec ID : A_AC3
Duration : 22 min 1 s
Bit rate mode : Constant
Bit rate : 448 kb/s
Channel(s) : 6 channels
Channel layout : L R C LFE Ls Rs
Sampling rate : 48.0 kHz
Frame rate : 31.250 FPS (1536 SPF)
Bit depth : 16 bits
Compression mode : Lossy
Stream size : 70.6 MiB (18%)
Title : Original
Language : English
Service kind : Complete Main
Default : No
Forced : No

Text
ID : 4
Format : UTF-8
Codec ID : S_TEXT/UTF8
Codec ID/Info : UTF-8 Plain Text
Duration : 21 min 31 s
Bit rate : 71 b/s
Count of elements : 457
Stream size : 11.2 KiB (0%)
Language : English
Default : Yes
Forced : No
Скріншоти:


Запис/синхронізація: sergiyko


Бронзовий реліз (на рейтинг впливає 75% завантаженого)
 Трекер:    Зареєстрований   

Завантажити / скачати мультфільм українською



відео для новачків



 Зареєстрований:   2019-09-05 00:38
 Розмір:   12.41 GB 
 Оцінка мультсеріалу:   9.6/10 (Голосів: 5)
   
CoreKira 
Новенький


З нами з: 28.12.18
Востаннє: 16.04.21
Повідомлень: 4

2021-01-20 15:53  
А де перші 4 серії із першого сезону і 5-та із третього?
Masanchick 
VIP


З нами з: 08.04.11
Востаннє: 23.04.21
Повідомлень: 1680

2021-01-20 16:01  
CoreKira
Примітка: відсутній запис звуку до 1-4 серій першого сезону та 5 серія третього, після повтору торент буде доповнений

Ваш часовий пояс: GMT + 2 Години

Нова тема   Відповісти