Страшилки 2: Привиди Хелловіна / Goosebumps 2: Haunted Halloween (2018) UHD Remux 4K 2160p HDR H.265 Ukr/Eng | Sub Ukr/Eng

Нові коментарі

Нова тема   Відповісти
Останній раз роздавалося uter (2019-10-03)
Автор Повідомлення
Bandit 01 
Частий відвідувач


З нами з: 22.07.11
Востаннє: 18.09.20
Повідомлень: 40

2019-09-04 15:50  
Страшилки 2: Привиди Хелловіна / Goosebumps 2: Haunted Halloween (2018) UHD Remux 4K 2160p HDR H.265 Ukr/Eng | Sub Ukr/Eng

Страшилки 2: Привиди Хелловіна / Goosebumps 2: Haunted Halloween (2018) UHD Remux 4K 2160p HDR H.265 Ukr/Eng | Sub Ukr/Eng


Жанр: жахи, комедія, пригодницький, сімейний, фентезі
Країна: США



Кінокомпанія: Columbia Pictures Corporation,Original Film,Scholastic Entertainment
Режисер: Ері Сандел
Актори: Венді МакЛендон-Кові, Медісон Ісман, Джеремі Рей Тейлор, Кен Жонг, Кріс Парнелл, Шарі Хедлі

Сюжет:
Лише напередодні Геловіну трапляються… комедійні кошмари. Зі сторінок відомого бестселера сходить ціла армія страшидл та монстрів, і цього разу чудовиська захоплюють парк розваг «Хорорленд». Звичайним підліткам не залишається нічого, окрім як стиснути свою відвагу в кулак і звільнити місто від нечисті різного калібру!


Тривалість: 01:29:48
Якість: 4K UltraHD Remux 2160p
Відео:
кодек: H.265 (HEVC)
розмір кадру: 3840х2160
бітрейт: 64,2 Mб/с
бітова глибина: 10 біт
кольоровий простір: BT.2020 (HDR)
Увага! Перед завантаженням переконайтесь, що ваш пристрій відтворення (та/або ПЗ) підтримує H.265 (HEVC)

Аудіо # 1:
мова: українська
переклад: професійний дубльований
кодек: 5.1
бітрейт: 384 кб/с

Аудіо # 2:
мова: англійська
переклад: оригінал
кодек: TrueHD з Dolby Atmos 7.1
бітрейт: 4317 кб/с

Аудіо # 3:
мова: англійська
переклад: оригінал
кодек: 5.1
бітрейт: 640 кб/с

Субтитри:
мова: українська
тип: програмні (м'які)
формат: *.srt

Субтитри:
мова: англійська
тип: програмні (м'які)
формат: *.srt
Info
Код:
General
Complete name               : D:\Goosebumps 2 Haunted Halloween (2018) Remux 2160p [UKR_ENG] [Hurtom].
Format                      :
Format version              : Version 4
File size                   : 43.7 GiB
Duration                    : 1 h 29 min
Overall bit rate mode       : Variable
Overall bit rate            : 69.6 Mb/s
Movie name                  : Goosebumps 2: Haunted Halloween 4K from селезень
Encoded date                : UTC 2019-09-03 15:21:03
Writing application         : v37.0.0 ('Leave It') 64-bit
Writing library             : libebml v1.3.9 + v1.5.2
Cover                       : Yes
Attachments                 : cover

Video
ID                          : 1
Format                      : HEVC
Format/Info                 : High Efficiency Video Coding
Format profile              : Main [email protected]@High
HDR format                  : SMPTE ST 2086, HDR10 compatible
Codec ID                    : V_MPEGH/ISO/HEVC
Duration                    : 1 h 29 min
Bit rate                    : 64.2 Mb/s
Width                       : 3 840 pixels
Height                      : 2 160 pixels
Display aspect ratio        : 16:9
Frame rate mode             : Constant
Frame rate                  : 23.976 (24000/1001) FPS
Color space                 : YUV
Chroma subsampling          : 4:2:0 (Type 2)
Bit depth                   : 10 bits
Bits/(Pixel*Frame)          : 0.323
Stream size                 : 40.3 GiB (92%)
Language                    : English
Default                     : Yes
Forced                      : No
Color range                 : Limited
Color primaries             : BT.2020
Transfer characteristics    : PQ
Matrix coefficients         : BT.2020 non-constant
Mastering display color pri : Display P3
Mastering display luminance : min: 0.0050 cd/m2, max: 4000 cd/m2
Maximum Content Light Level : 981 cd/m2
Maximum Frame-Average Light : 979 cd/m2

Audio #1
ID                          : 2
Format                      : AC-3
Format/Info                 : Audio Coding 3
Commercial name             : Dolby Digital
Codec ID                    : A_AC3
Duration                    : 1 h 29 min
Bit rate mode               : Constant
Bit rate                    : 384 kb/s
Channel(s)                  : 6 channels
Channel layout              : L R C LFE Ls Rs
Sampling rate               : 48.0 kHz
Frame rate                  : 31.250 FPS (1536 SPF)
Bit depth                   : 16 bits
Compression mode            : Lossy
Stream size                 : 247 MiB (1%)
Title                       : Dub [Ledoyen, іTunеs], 5.1 384 kbps
Language                    : Ukrainian
Service kind                : Complete Main
Default                     : Yes
Forced                      : Yes

Audio #2
ID                          : 3
Format                      : MLP FBA 16-ch
Format/Info                 : Meridian Lossless Packing FBA with 16-channel presentation
Commercial name             : Dolby TrueHD with Dolby Atmos
Codec ID                    : A_TRUEHD
Duration                    : 1 h 29 min
Bit rate mode               : Variable
Bit rate                    : 4 317 kb/s
Maximum bit rate            : 7 593 kb/s
Channel(s)                  : 8 channels
Channel layout              : L R C LFE Ls Rs Lb Rb
Sampling rate               : 48.0 kHz
Frame rate                  : 1 200.000 FPS (40 SPF)
Compression mode            : Lossless
Stream size                 : 2.71 GiB (6%)
Title                       : Original
Language                    : English
Default                     : No
Forced                      : No
Number of dynamic objects   : 11
Bed channel count           : 1 channel
Bed channel configuration   : LFE

Audio #3
ID                          : 4
Format                      : AC-3
Format/Info                 : Audio Coding 3
Commercial name             : Dolby Digital
Codec ID                    : A_AC3
Duration                    : 1 h 29 min
Bit rate mode               : Constant
Bit rate                    : 640 kb/s
Channel(s)                  : 6 channels
Channel layout              : L R C LFE Ls Rs
Sampling rate               : 48.0 kHz
Frame rate                  : 31.250 FPS (1536 SPF)
Bit depth                   : 16 bits
Compression mode            : Lossy
Stream size                 : 411 MiB (1%)
Language                    : English
Service kind                : Complete Main
Default                     : No
Forced                      : No

Text #1
ID                          : 5
Format                      : UTF-8
Codec ID                    : S_TEXT/UTF8
Codec ID/Info               : UTF-8 Plain Text
Duration                    : 1 h 28 min
Bit rate                    : 78 b/s
Count of elements           : 1125
Stream size                 : 50.7 KiB (0%)
Title                       : Full
Language                    : Ukrainian
Default                     : No
Forced                      : No

Text #2
ID                          : 6
Format                      : UTF-8
Codec ID                    : S_TEXT/UTF8
Codec ID/Info               : UTF-8 Plain Text
Duration                    : 1 h 27 min
Bit rate                    : 59 b/s
Count of elements           : 1277
Stream size                 : 38.0 KiB (0%)
Title                       : Full
Language                    : English
Default                     : No
Forced                      : No

Menu
00:00:00.000                : en:Chapter 01
00:04:33.440                : en:Chapter 02
00:11:16.175                : en:Chapter 03
00:18:43.914                : en:Chapter 04
00:21:41.634                : en:Chapter 05
00:27:23.350                : en:Chapter 06
00:32:37.122                : en:Chapter 07
00:37:48.433                : en:Chapter 08
00:45:14.921                : en:Chapter 09
00:50:11.717                : en:Chapter 10
00:56:17.708                : en:Chapter 11
01:00:35.757                : en:Chapter 12
01:05:28.133                : en:Chapter 13
01:09:25.119                : en:Chapter 14
01:14:37.932                : en:Chapter 15
01:20:29.324                : en:Chapter 16
Скріншоти

Джерело: &
Особиста оцінка: 8 - мені сподобалося


Золотий реліз (завантажене не впливає на рейтинг)
 Трекер:    Зареєстрований   

Завантажити / скачати фільм українською



відео для новачків



 Зареєстрований:   2019-09-04 15:50
 Розмір:   43.67 GB 
 Оцінка фільму:   10/10 (Голосів: 7)
   
Neo-Studio 
Частий відвідувач


З нами з: 22.04.12
Востаннє: 18.09.20
Повідомлень: 42

2020-03-15 01:02  
Може хто роздати?
antik_2008 
Релізер і модератор відео


З нами з: 20.10.08
Востаннє: 18.09.20
Повідомлень: 4127

2020-03-15 01:09  
Neo-Studio написано:
Може хто роздати?

Цитата:
Покликати сідерів


спробуйте

Neo-Studio 
Частий відвідувач


З нами з: 22.04.12
Востаннє: 18.09.20
Повідомлень: 42

2020-03-15 11:43  
antik_2008 написано:
спробуйте

вже =) поки тиша ((

Ваш часовий пояс: GMT + 2 Години

Нова тема   Відповісти