Білі піски / White Sands (1992)

Нові коментарі

Нова тема   Відповісти
Автор Повідомлення
Anonymous 







2019-09-04 15:42  
Білі піски / White Sands (1992)

Альтернативний постер:



Жанр: бойовик, трилер, драма, кримінальний
Країна: США



Кінокомпанія: Morgan Creek Productions, Warner Bros.
Режисер: Роджер Дональдсон / Roger Donaldson
Актори: Віллем Дефо / Willem Dafoe, Мері Елізабет Мастрантоніо / Mary Elizabeth Mastrantonio, Міккі Рурк / Mickey Rourke, Семюель Л. Джексон / Samuel L. Jackson, Майкл Еммет Волш / M. Emmet Walsh, Джеймс Ребхорн / James Rebhorn, Мімі Роджерс / Mimi Rogers та інші

Сюжет:
Заступника шерифа штату Нью-Мексико Рея Долезала (Віллем Дефо) викликають оглянути тіло вбитої людини зі стисненим у руці портфелем з $500 000, яке знайшли в пустелі "Білі піски" двоє туристів. Для того, щоб все як слід розслідувати, Рей Долезал видає себе за вбитого. Виявляється, убитий був агентом ФБР. Тепер Долезал - сам агент і входить у злочинну мережу, яка займається торгівлею зброєю та наркотиками.


Тривалість: 01:41:06
Якість:
Відео:
кодек:
розмір кадру: 720х304
бітрейт: 1860 кб/с

Аудіо:
мова: українська
переклад: багатоголосий закадровий
кодек: 2.0 [стерео]
бітрейт: 192 кб/с
Info
Код:
General
Complete name               : White Sands (1992) [Ukr] [Hurtom].avi
Format                      : AVI
Format/Info                 : Audio Video Interleave
File size                   : 1.46 GiB
Duration                    : 1 h 41 min
Overall bit rate            : 2 061 kb/s
Movie name                  : Білі піски / White Sands (1992) [Ukr] [Hurtom]
Writing application         : VirtualDubModUkr 1.5.10.2 (build 2542/release)
Writing library             : VirtualDubMod build 2542/release

Video
ID                          : 0
Format                      : MPEG-4 Visual
Format profile              : Advanced [email protected]
Format settings             : BVOP2 / Custom Matrix
Format settings, BVOP       : 2
Format settings, QPel       : No
Format settings, GMC        : No warppoints
Format settings, Matrix     : Custom
Codec ID                    :
Codec ID/Hint               :
Duration                    : 1 h 41 min
Bit rate                    : 1 860 kb/s
Width                       : 720 pixels
Height                      : 304 pixels
Display aspect ratio        : 2.35:1
Frame rate                  : 23.976 (24000/1001) FPS
Color space                 : YUV
Chroma subsampling          : 4:2:0
Bit depth                   : 8 bits
Scan type                   : Progressive
Compression mode            : Lossy
Bits/(Pixel*Frame)          : 0.354
Stream size                 : 1.31 GiB (90%)
Writing library             : 67

Audio
ID                          : 1
Format                      : AC-3
Format/Info                 : Audio Coding 3
Commercial name             : Dolby Digital
Codec ID                    : 2000
Duration                    : 1 h 41 min
Bit rate mode               : Constant
Bit rate                    : 192 kb/s
Channel(s)                  : 2 channels
Channel layout              : L R
Sampling rate               : 48.0 kHz
Frame rate                  : 31.250 FPS (1536 SPF)
Bit depth                   : 16 bits
Compression mode            : Lossy
Stream size                 : 139 MiB (9%)
Alignment                   : Split across interleaves
Interleave, duration        : 42  ms (1.00 video frame)
Interleave, preload duratio : 500  ms
Title                       : UKR MVO [AMC]
Service kind                : Complete Main



Джерело: &
Подяка п.kryk-v.ya. за українську доріжку.


Срібний реліз (на рейтинг впливає 50% завантаженого)
 Трекер:    Зареєстрований   

Завантажити / скачати фільм українською



відео для новачків



 Зареєстрований:   2019-09-04 15:42
 Розмір:   1.46 GB 
 Оцінка фільму:   9.8/10 (Голосів: 6)
 ЗАЛИШАЙТЕСЬ ЯКОМОГА ДОВШЕ НА РОЗДАЧІ! ЗАВАНТАЖИВ САМ - ДАЙ ЗАВАНТАЖИТИ ІНШИМ!
   
Інші релізи
   Білі піски / White Sands (1992) Remux 1080p Ukr/Eng | Sub Eng staf777  2 / 0   21.14 GB   2019-09-15 20:41 
   Білі піски / White Sands (1992) AVC Ukr/Eng | Sub Eng igor911  2 / 1   1.77 GB   2019-09-04 15:28 
   Білі піски / White Sands (1992) 1080p Ukr/Eng | Sub Eng kryk-v.ya.  2 / 0   7.36 GB   2019-08-29 12:35 
Ваш часовий пояс: GMT + 2 Години

Нова тема   Відповісти