Білі піски / White Sands (1992) AVC Ukr/Eng | Sub Eng

Нові коментарі

Нова тема   Відповісти
Автор Повідомлення
Anonymous 







2019-09-04 15:28  
Білі піски / White Sands (1992) AVC Ukr/Eng | Sub Eng

Альтернативний постер:



Жанр: бойовик, трилер, драма, кримінальний
Країна: США



Кінокомпанія: Morgan Creek Productions, Warner Bros.
Режисер: Роджер Дональдсон / Roger Donaldson
Актори: Віллем Дефо / Willem Dafoe, Мері Елізабет Мастрантоніо / Mary Elizabeth Mastrantonio, Міккі Рурк / Mickey Rourke, Семюель Л. Джексон / Samuel L. Jackson, Майкл Еммет Волш / M. Emmet Walsh, Джеймс Ребхорн / James Rebhorn, Мімі Роджерс / Mimi Rogers та інші

Сюжет:
Заступника шерифа штату Нью-Мексико Рея Долезала (Віллем Дефо) викликають оглянути тіло вбитої людини зі стисненим у руці портфелем з $500 000, яке знайшли в пустелі "Білі піски" двоє туристів. Для того, щоб все як слід розслідувати, Рей Долезал видає себе за вбитого. Виявляється, убитий був агентом ФБР. Тепер Долезал - сам агент і входить у злочинну мережу, яка займається торгівлею зброєю та наркотиками.


Тривалість: 01:41:06
Якість: AVC
Відео:
кодек:
розмір кадру: 998х422
бітрейт: 1862 кб/с

Аудіо # 1:
мова: українська
переклад: багатоголосий закадровий
кодек: 2.0 [стерео]
бітрейт: 192 кб/с

Аудіо # 2:
мова: англійська
переклад: оригінал
кодек: 5.1
бітрейт: 448 кб/с

Субтитри:
мова: англійська
тип: програмні (м'які)
формат: *.srt

Збережено оригінальні розділи, як на Blu-ray
Info
Код:

Complete name               : White Sands (1992) [Ukr,Eng sub.Eng] AVC [Hurtom].
Format                      :
Format version              : Version 4
File size                   : 1.77 GiB
Duration                    : 1 h 41 min
Overall bit rate            : 2 504 kb/s
Movie name                  : Білі піски / White Sands (1992) [Ukr,Eng sub.Eng] AVC [Hurtom]
Encoded date                : UTC 2019-09-04 11:34:42
Writing application         : v37.0.0 ('Leave It') 64-bit
Writing library             : libebml v1.3.9 + v1.5.2
Cover                       : Yes
Attachments                 : cover.jpg

Video
ID                          : 1
Format                      : AVC
Format/Info                 : Advanced Video Codec
Format profile              : [email protected]
Format settings             : CABAC / 12 Ref Frames
Format settings, CABAC      : Yes
Format settings, Reference  : 12 frames
Codec ID                    : V_MPEG4/ISO/AVC
Duration                    : 1 h 41 min
Bit rate                    : 1 862 kb/s
Width                       : 998 pixels
Height                      : 422 pixels
Display aspect ratio        : 2.35:1
Frame rate mode             : Constant
Frame rate                  : 23.976 (24000/1001) FPS
Color space                 : YUV
Chroma subsampling          : 4:2:0
Bit depth                   : 8 bits
Scan type                   : Progressive
Bits/(Pixel*Frame)          : 0.184
Stream size                 : 1.32 GiB (74%)
Title                       : Білі піски / White Sands (1992) AVC [-=DoMiNo=-]
Writing library             : core 157 r2958 57baac4
Encoding settings           : cabac=1 / ref=12 / deblock=1:-2:-2 / analyse=0x3:0x133 / me=umh / subme=11 / psy=1 / psy_rd=1.00:0.00 / mixed_ref=1 / me_range=32 / chroma_me=1 / trellis=2 / 8x8dct=1 / cqm=0 / deadzone=21,11 / fast_pskip=0 / chroma_qp_offset=-2 / threads=6 / lookahead_threads=1 / sliced_threads=0 / nr=0 / decimate=0 / interlaced=0 / bluray_compat=0 / constrained_intra=0 / bframes=10 / b_pyramid=2 / b_adapt=2 / b_bias=0 / direct=3 / weightb=1 / open_gop=0 / weightp=2 / keyint=240 / keyint_min=24 / scenecut=40 / intra_refresh=0 / rc_lookahead=60 / rc=2pass / mbtree=0 / bitrate=1862 / ratetol=1.0 / qcomp=0.70 / qpmin=0 / qpmax=69 / qpstep=4 / cplxblur=20.0 / qblur=0.5 / vbv_maxrate=50000 / vbv_bufsize=62500 / nal_hrd=none / filler=0 / ip_ratio=1.40 / pb_ratio=1.30 / aq=3:1.00
Language                    : English
Default                     : Yes
Forced                      : No

Audio #1
ID                          : 2
Format                      : AC-3
Format/Info                 : Audio Coding 3
Commercial name             : Dolby Digital
Codec ID                    : A_AC3
Duration                    : 1 h 41 min
Bit rate mode               : Constant
Bit rate                    : 192 kb/s
Channel(s)                  : 2 channels
Channel layout              : L R
Sampling rate               : 48.0 kHz
Frame rate                  : 31.250 FPS (1536 SPF)
Bit depth                   : 16 bits
Compression mode            : Lossy
Stream size                 : 139 MiB (8%)
Title                       : MVO [AMC], 2.0 [stereo] 192 Kbps
Language                    : Ukrainian
Service kind                : Complete Main
Default                     : Yes
Forced                      : Yes

Audio #2
ID                          : 3
Format                      : AC-3
Format/Info                 : Audio Coding 3
Commercial name             : Dolby Digital
Codec ID                    : A_AC3
Duration                    : 1 h 41 min
Bit rate mode               : Constant
Bit rate                    : 448 kb/s
Channel(s)                  : 6 channels
Channel layout              : L R C LFE Ls Rs
Sampling rate               : 48.0 kHz
Frame rate                  : 31.250 FPS (1536 SPF)
Bit depth                   : 16 bits
Compression mode            : Lossy
Stream size                 : 324 MiB (18%)
Title                       : Original, 5.1 448 Kbps
Language                    : English
Service kind                : Complete Main
Default                     : No
Forced                      : No

Text
ID                          : 4
Format                      : UTF-8
Codec ID                    : S_TEXT/UTF8
Codec ID/Info               : UTF-8 Plain Text
Duration                    : 1 h 36 min
Bit rate                    : 63 b/s
Count of elements           : 1212
Stream size                 : 44.7 KiB (0%)
Title                       : Eng full
Language                    : English
Default                     : No
Forced                      : No

Menu
00:00:00.000                : :Chapter 01
00:10:00.600                : :Chapter 02
00:20:01.200                : :Chapter 03
00:30:01.800                : :Chapter 04
00:40:02.400                : :Chapter 05
00:50:03.000                : :Chapter 06
01:00:03.600                : :Chapter 07
01:10:04.200                : :Chapter 08
01:20:04.800                : :Chapter 09
01:30:05.400                : :Chapter 10
01:36:05.760                : :Chapter 11



Джерело: &
Подяка п.kryk-v.ya. за українську доріжку.


Срібний реліз (на рейтинг впливає 50% завантаженого)
 Трекер:    Зареєстрований   

Завантажити / скачати фільм українською



відео для новачків



 Зареєстрований:   2019-09-04 15:28
 Розмір:   1.77 GB 
 Оцінка фільму:   9.8/10 (Голосів: 8)
 ЗАЛИШАЙТЕСЬ ЯКОМОГА ДОВШЕ НА РОЗДАЧІ! ЗАВАНТАЖИВ САМ - ДАЙ ЗАВАНТАЖИТИ ІНШИМ!
   
Інші релізи
   Білі піски / White Sands (1992) Remux 1080p Ukr/Eng | Sub Eng staf777  4 / 0   21.14 GB   2019-09-15 20:41 
   Білі піски / White Sands (1992) igor911  8 / 0   1.46 GB   2019-09-04 15:42 
   Білі піски / White Sands (1992) 1080p Ukr/Eng | Sub Eng kryk-v.ya.  2 / 0   7.36 GB   2019-08-29 12:35 
Ваш часовий пояс: GMT + 2 Години

Нова тема   Відповісти