Смертельна ізоляція / Deadly Isolation (2005)

Нові коментарі

Нова тема   Відповісти
Автор Повідомлення
Anonymous 







2019-09-04 08:58  
Смертельна ізоляція / Deadly Isolation (2005)

Смертельна ізоляція / Deadly Isolation (2005)
Альтернативний постер:



Жанр: кримінальний, мелодрама, трилер
Країна: США, Канада



Кінокомпанія: Incendo Productions, Cypress Point Productions, JB Isolation Production Inc.
Режисер: Родні Гіббонс / Rodney Gibbons
Актори: Шерилін Фенн / Sherilyn Fenn, Ніколас Ліа / Nicholas Lea, Андреас Апергіс / Andreas Apergis, Марсель Жанін / Marcel Jeannin, Брет Вотсон / Brett Watson, Сара Брадін / Sara Bradeen, Норман Мікіл Беркета / Norman Mikeal Berketa, Річард Джутрас / Richard Jutras та інші

Сюжет:
Після смерті чоловіка Сьюзан (Шерилін Фенн) веде усамітнене життя на маленькому острівці біля узбережжя штату Мен. Раптово в її будинку з'являється Джефф (Ніколас Ліа), серйозно поранений після нещасного випадку на морі. Сьюзан запрошує його пожити у себе до повного одужання. Все більше довіряючи Джеффу, вона знаходить привід, щоб він погостював у неї довше. Сьюзан і не підозрює, що її чоловік вів подвійне життя і привласнив діаманти на суму 20 мільйонів доларів, викрадені разом з двома подільниками, які тепер хочуть отримати свою частку, і Джефф - один з них. Упевнені в тому, що Сьюзан знає, де заховані діаманти, злочинці не зупиняться ні перед чим ...


Тривалість: 01:28:15
Якість: [Hurtom]
Відео:
кодек:
розмір кадру: 704 х 400
бітрейт: 2150 кб/с

Аудіо:
мова: українська
переклад: багатоголосий закадровий | Компанія "Кіт"
кодек: 2.0
бітрейт: 192 кб/с
Info
Код:
General
Complete name               : Deadly Isolation (2005) [Ukr] [Hurtom].avi
Format                      : AVI
Format/Info                 : Audio Video Interleave
File size                   : 1.45 GiB
Duration                    : 1 h 28 min
Overall bit rate            : 2 352 kb/s
Movie name                  : Смертельна ізоляція / Deadly Isolation (2005) [Ukr] [Hurtom]
Writing application         : VirtualDubModUkr 1.5.10.2 (build 2542/release)
Writing library             : VirtualDubMod build 2542/release

Video
ID                          : 0
Format                      : MPEG-4 Visual
Format profile              : Advanced [email protected]
Format settings             : BVOP1
Format settings, BVOP       : 1
Format settings, QPel       : No
Format settings, GMC        : No warppoints
Format settings, Matrix     : Default (MPEG)
Codec ID                    :
Codec ID/Hint               :
Duration                    : 1 h 28 min
Bit rate                    : 2 150 kb/s
Width                       : 704 pixels
Height                      : 400 pixels
Display aspect ratio        : 16:9
Frame rate                  : 25.000 FPS
Color space                 : YUV
Chroma subsampling          : 4:2:0
Bit depth                   : 8 bits
Scan type                   : Progressive
Compression mode            : Lossy
Bits/(Pixel*Frame)          : 0.305
Stream size                 : 1.33 GiB (91%)
Writing library             : 67

Audio
ID                          : 1
Format                      : AC-3
Format/Info                 : Audio Coding 3
Commercial name             : Dolby Digital
Codec ID                    : 2000
Duration                    : 1 h 28 min
Bit rate mode               : Constant
Bit rate                    : 192 kb/s
Channel(s)                  : 2 channels
Channel layout              : L R
Sampling rate               : 48.0 kHz
Frame rate                  : 31.250 FPS (1536 SPF)
Bit depth                   : 16 bits
Compression mode            : Lossy
Stream size                 : 121 MiB (8%)
Alignment                   : Split across interleaves
Interleave, duration        : 40  ms (1.00 video frame)
Interleave, preload duratio : 500  ms
Title                       : UKR MVO [KIT]
Service kind                : Complete Main



Джерело:
Подяка п.kryk-v.ya. за українську доріжку та реліз-першоджерело.


 Трекер:    Зареєстрований   

Завантажити / скачати фільм українською



відео для новачків



 Зареєстрований:   2019-09-04 08:58
 Розмір:   1.45 GB 
 Оцінка фільму:   9.1/10 (Голосів: 7)
 ЗАЛИШАЙТЕСЬ ЯКОМОГА ДОВШЕ НА РОЗДАЧІ! ЗАВАНТАЖИВ САМ - ДАЙ ЗАВАНТАЖИТИ ІНШИМ!
   
Інші релізи
Ваш часовий пояс: GMT + 2 Години

Нова тема   Відповісти