Люди Ікс: Темний фенікс / Dark Phoenix (2019) 4K 2160p HDR H.265 Ukr/Eng | sub Ukr/Eng

Нові коментарі

Нова тема   Відповісти
Автор Повідомлення
Babamin 
Свій


З нами з: 29.12.15
Востаннє: 25.09.20
Повідомлень: 68

2019-09-04 02:01  
Люди Ікс: Темний фенікс / Dark Phoenix (2019) 4K 2160p HDR H.265 Ukr/Eng | sub Ukr/Eng

Люди Ікс: Темний фенікс / Dark Phoenix (2019) 4K 2160p HDR H.265 Ukr/Eng | sub Ukr/Eng



Жанр: бойовик, пригодницький, фантастика
Країна: США



Кінокомпанія: 20th Century Fox, Marvel Entertainment, TSG Entertainment
Режисер: Саймон Кінберґ
Актори: Софі Тернер, Дженніфер Лоуренс, Джеймс МакЕвой, Майкл Фассбендер, Джессіка Честейн, Ніколас Голт, Еван Пітерс, Тай Шерідан, Александра Шіпп, Коді Сміт-МакФі та інші

Сюжет:
Зовсім маленька дівчинка Джин Грей залишилася без батьків. Єдиний, хто їй дав притулок – це Чарльз Ксав'єр, у якого є спеціальна школа для обдарованих дітей. Він завжди знав, що Джин – виняткова дівчинка, ледь не найсильніший мутант на нашій планеті. Під час однієї рятувальної операції на орбіті Землі, Джин майже загинула через незрозумілу космічну силу, але вона змогла вижити. Коли ж команда мутантів повернулася додому, то побачила, як сили Джин почали рости. І чим далі – тим складніше їй було їх контролювати. Чи дійде навіть до того, що дівчина буде завдавати шкоди тим, кого найбільше любить. Її сили стануть неконтрольованими – і тоді Люди Ікс постануть перед вибором: врятувати члена своєї команди або все людство.


Тривалість: 01:53:54
Якість: 4K 2160p
Контейнер:

Відео:
кодек: H.265 (HEVC)
розмір кадру: 3840 х 2160
бітрейт: 24,2 Мб/с
бітова глибина: 10 біт
кольоровий простір: BT.2020 (HDR)
Увага! Перед завантаженням переконайтесь, що ваш пристрій відтворення (та/або ПЗ) підтримує H.265 (HEVC)

Аудіо # 1:
мова: українська
переклад: професійний дубльований | студія Postmodern
кодек: 5.1
бітрейт: 448 кб/с

Аудіо # 2:
мова: англійська
переклад: оригінал
кодек: -HD MA 7.1
бітрейт: 5074 кб/с

Аудіо # 3:
мова: англійська
переклад: оригінал
кодек: 5.1
бітрейт: 640 кб/с

Субтитри # 1-2:
мова: українська (Forced, Full)
тип: програмні (м'які)
формат: *.srt

Субтитри # 3-5:
мова: англійська (Forced, Full, SDH)
тип: програмні (м'які)
формат: *.srt
Info:
Format :
Format version : Version 4
File size : 24.2 GiB
Duration : 1 h 53 min
Overall bit rate mode : Variable
Overall bit rate : 30.4 Mb/s
Movie name : Dark Phoenix (2019) 2160p HDR x265 -Hurtom
Encoded date : UTC 2019-09-03 22:23:28
Writing application : v37.0.0 ('Leave It') 64-bit
Writing library : libebml v1.3.9 + v1.5.2
Cover : Yes
Attachments : cover_land.jpg / small_cover.jpg / small_cover_land.jpg / cover.jpg

Video
ID : 1
Format : HEVC
Format/Info : High Efficiency Video Coding
Format profile : Main [email protected]@High
HDR format : SMPTE ST 2086, HDR10 compatible
Codec ID : V_MPEGH/ISO/HEVC
Duration : 1 h 53 min
Bit rate : 24.2 Mb/s
Width : 3 840 pixels
Height : 1 608 pixels
Original height : 2 160 pixels
Display aspect ratio : 16:9
Frame rate mode : Constant
Frame rate : 23.976 (24000/1001) FPS
Color space : YUV
Chroma subsampling : 4:2:0 (Type 2)
Bit depth : 10 bits
Bits/(Pixel*Frame) : 0.164
Stream size : 19.3 GiB (80%)
Title : Dark.Phoenix.2019..2160p.HDR.x265-Hurtom
Default : Yes
Forced : No
Color range : Limited
Color primaries : BT.2020
Transfer characteristics : PQ
Matrix coefficients : BT.2020 non-constant
Mastering display color primaries : Display P3
Mastering display luminance : min: 0.0050 cd/m2, max: 1000 cd/m2

Audio #1
ID : 2
Format : AC-3
Format/Info : Audio Coding 3
Commercial name : Dolby Digital
Codec ID : A_AC3
Duration : 1 h 53 min
Bit rate mode : Constant
Bit rate : 448 kb/s
Channel(s) : 6 channels
Channel layout : L R C LFE Ls Rs
Sampling rate : 48.0 kHz
Frame rate : 31.250 FPS (1536 SPF)
Bit depth : 16 bits
Compression mode : Lossy
Stream size : 365 MiB (1%)
Title : Dub BD
Language : Ukrainian
Service kind : Complete Main
Default : Yes
Forced : No

Audio #2
ID : 3
Format : XLL
Format/Info : Digital Theater Systems
Commercial name : -HD Master Audio
Codec ID : A_DTS
Duration : 1 h 53 min
Bit rate mode : Variable
Bit rate : 5 074 kb/s
Channel(s) : 8 channels
Channel layout : C L R LFE Lb Rb Lss Rss
Sampling rate : 48.0 kHz
Frame rate : 93.750 FPS (512 SPF)
Bit depth : 24 bits
Compression mode : Lossless
Stream size : 4.04 GiB (17%)
Language : English
Default : No
Forced : No

Audio #3
ID : 4
Format : AC-3
Format/Info : Audio Coding 3
Commercial name : Dolby Digital
Codec ID : A_AC3
Duration : 1 h 53 min
Bit rate mode : Constant
Bit rate : 640 kb/s
Channel(s) : 6 channels
Channel layout : L R C LFE Ls Rs
Sampling rate : 48.0 kHz
Frame rate : 31.250 FPS (1536 SPF)
Bit depth : 16 bits
Compression mode : Lossy
Stream size : 522 MiB (2%)
Language : English
Service kind : Complete Main
Default : No
Forced : No

Text #1
ID : 5
Format : UTF-8
Codec ID : S_TEXT/UTF8
Codec ID/Info : UTF-8 Plain Text
Duration : 1 h 52 min
Bit rate : 0 b/s
Count of elements : 10
Stream size : 347 Bytes (0%)
Title : Forced
Language : Ukrainian
Default : Yes
Forced : Yes

Text #2
ID : 6
Format : UTF-8
Codec ID : S_TEXT/UTF8
Codec ID/Info : UTF-8 Plain Text
Duration : 1 h 52 min
Bit rate : 55 b/s
Count of elements : 1097
Stream size : 45.9 KiB (0%)
Title : Full
Language : Ukrainian
Default : No
Forced : No

Text #3
ID : 7
Format : UTF-8
Codec ID : S_TEXT/UTF8
Codec ID/Info : UTF-8 Plain Text
Duration : 31 min 20 s
Bit rate : 0 b/s
Count of elements : 4
Stream size : 168 Bytes (0%)
Title : Forced
Language : English
Default : No
Forced : No

Text #4
ID : 8
Format : UTF-8
Codec ID : S_TEXT/UTF8
Codec ID/Info : UTF-8 Plain Text
Duration : 1 h 43 min
Bit rate : 40 b/s
Count of elements : 1134
Stream size : 30.7 KiB (0%)
Title : Full
Language : English
Default : No
Forced : No

Text #5
ID : 9
Format : UTF-8
Codec ID : S_TEXT/UTF8
Codec ID/Info : UTF-8 Plain Text
Duration : 1 h 53 min
Bit rate : 43 b/s
Count of elements : 1414
Stream size : 36.4 KiB (0%)
Title : SDH
Language : English
Default : No
Forced : No

Menu
00:00:01.000 : en:Chapter 01
00:03:27.000 : en:Chapter 02
00:07:33.000 : en:Chapter 03
00:11:41.000 : en:Chapter 04
00:15:43.000 : en:Chapter 05
00:18:36.000 : en:Chapter 06
00:25:23.000 : en:Chapter 07
00:31:39.000 : en:Chapter 08
00:34:18.000 : en:Chapter 09
00:40:06.000 : en:Chapter 10
00:44:35.000 : en:Chapter 11
00:49:06.000 : en:Chapter 12
00:55:37.000 : en:Chapter 13
00:58:56.000 : en:Chapter 14
01:02:55.000 : en:Chapter 15
01:10:39.000 : en:Chapter 16
01:13:41.000 : en:Chapter 17
01:19:32.000 : en:Chapter 18
01:22:34.000 : en:Chapter 19
01:25:48.000 : en:Chapter 20
01:30:37.000 : en:Chapter 21
01:32:47.000 : en:Chapter 22
01:37:58.000 : en:Chapter 23
01:45:00.000 : en:Chapter 24
Скріншоти:









Джерело: &


 Трекер:    Зареєстрований   

Завантажити / скачати фільм українською



відео для новачків



 Зареєстрований:   2019-09-04 02:01
 Розмір:   24.2 GB 
 Оцінка фільму:   8/10 (Голосів: 8)
   
Neolo 
Свій


З нами з: 13.11.10
Востаннє: 27.09.20
Повідомлень: 144

2019-09-24 02:03  

Створена роздача на DC++ хабі Толока (сід "Схованка-1" 24/7)

Магніт (для клієнта Eiskalt - CTRL+I): magnet:?xt=urn:tree:tiger:KTOMIYS2PALC7367HTAFW5EFDTHFUGNWLE74H4Y&xl=25980490685&dn=Dark.Phoenix.2019..2160p.HDR.x265-Hurtom.
Або CTRL+S в клієнті і виконати пошук за хешом чи безпосередньо за іменем файла.

Тема на форумі та як приєднатися: https://toloka.to/t103590

Ваш часовий пояс: GMT + 2 Години

Нова тема   Відповісти