Домашні вогнища / Home Fires (Сезон 1) (2015) 1080p Ukr/Eng | sub Eng

Нові коментарі

Нова тема   Відповісти
Автор Повідомлення
sergiyko.5 
Забанено
Забанено


З нами з: 25.02.16
Востаннє: 29.10.20
Повідомлень: 3650

2019-09-03 22:49  
Домашні вогнища / Home Fires (Сезон 1) (2015) 1080p Ukr/Eng | sub Eng

Домашні вогнища / Home Fires (Сезон 1) (2015) 1080p Ukr/Eng | sub Eng

Жанр: драма, воєнний
Країна: Велика Британія
Режисер: Роберт Куінн, Брюс Гудісон
Актори: Саманта Бонд, Клер Келбрайт, Ед Стоппард, Деніел Райан, Фенелла Вулгар, Брайан Флетчер, Дейзі Баджер, Рут Геммелль

Сюжет:
Серіал про період, коли Англія ось-ось вступить в Другу світову війну. Головні персонажі живуть в селі Грейт Паксфорд, графства Чешир, і їх долі також не омине стороною прихід війни. Незабаром почнуться активні військові дії, а домашні вогнища, які так оберігалися, тепер ніколи не будуть такими як раніше. У всю міць працюють приймальні комісаріатів, чоловіки можуть відправитися на війну за першим покликом, і важко уявити які труднощі ляжуть на їхні плечі. Тепер жінки повинні розраховувати тільки на самих себе.




Тривалість: 1 серія: 00:47:23 (цілком серій: 6 з 6)
Якість:

Відео: кодек: розмір кадру: 1920 х 1080 бітрейт: 10300 кб/с
Аудіо # 1: мова: українська переклад: багатоголосий закадровий кодек: 2.0 бітрейт: 192 кб/с
Озвучення: Олександр Фурман і Ольга Гриськова
Аудіо # 2: мова: англійська переклад: оригінал кодек: 2.0 бітрейт: 192 кб/с
Субтитри: мова: англійська тип: програмні (м'які) формат: *.srt
Про файл:
General
Unique ID : 88661735889268331147095023473259561329 (0x42B3A113B693BC6D139FDD7E5C41C171)
Complete name : D:\Documents\Torrents\SERIAL\Home Fires S01 1080p \Home.Fires.S01E02.1080p..Ukr.Eng.
Format :
Format version : Version 4
File size : 3.59 GiB
Duration : 47 min 23 s
Overall bit rate : 10.9 Mb/s
Movie name : Home Fires S01 1080p by sergiyko
Encoded date : UTC 2019-09-03 20:45:05
Writing application : v36.0.0 ('Is That Jazz?') 64-bit
Writing library : libebml v1.3.9 + v1.5.2

Video
ID : 1
Format : AVC
Format/Info : Advanced Video Codec
Format profile : [email protected]
Format settings : CABAC / 4 Ref Frames
Format settings, CABAC : Yes
Format settings, Reference fra : 4 frames
Codec ID : V_MPEG4/ISO/AVC
Duration : 47 min 22 s
Bit rate : 10.5 Mb/s
Width : 1 920 pixels
Height : 1 080 pixels
Display aspect ratio : 16:9
Frame rate mode : Constant
Frame rate : 23.976 (24000/1001) FPS
Color space : YUV
Chroma subsampling : 4:2:0
Bit depth : 8 bits
Scan type : Progressive
Bits/(Pixel*Frame) : 0.211
Stream size : 3.46 GiB (96%)
Writing library : core 148 r2744 b97ae06
Encoding settings : cabac=1 / ref=4 / deblock=1:0:0 / analyse=0x3:0x113 / me=umh / subme=8 / psy=1 / psy_rd=1.00:0.00 / mixed_ref=1 / me_range=16 / chroma_me=1 / trellis=1 / 8x8dct=1 / cqm=0 / deadzone=21,11 / fast_pskip=1 / chroma_qp_offset=-2 / threads=12 / lookahead_threads=2 / sliced_threads=0 / nr=0 / decimate=1 / interlaced=0 / bluray_compat=0 / constrained_intra=0 / bframes=3 / b_pyramid=2 / b_adapt=1 / b_bias=0 / direct=3 / weightb=1 / open_gop=0 / weightp=2 / keyint=240 / keyint_min=23 / scenecut=40 / intra_refresh=0 / rc_lookahead=50 / rc=2pass / mbtree=1 / bitrate=10467 / ratetol=1.0 / qcomp=0.60 / qpmin=0 / qpmax=69 / qpstep=4 / cplxblur=20.0 / qblur=0.5 / ip_ratio=1.40 / aq=1:1.00
Language : English
Default : Yes
Forced : No

Audio #1
ID : 2
Format : AC-3
Format/Info : Audio Coding 3
Commercial name : Dolby Digital
Codec ID : A_AC3
Duration : 47 min 23 s
Bit rate mode : Constant
Bit rate : 192 kb/s
Channel(s) : 2 channels
Channel layout : L R
Sampling rate : 48.0 kHz
Frame rate : 31.250 FPS (1536 SPF)
Bit depth : 16 bits
Compression mode : Lossy
Stream size : 65.1 MiB (2%)
Title : MOV | ObozTV
Language : Ukrainian
Service kind : Complete Main
Default : Yes
Forced : Yes

Audio #2
ID : 3
Format : AC-3
Format/Info : Audio Coding 3
Commercial name : Dolby Digital
Codec ID : A_AC3
Duration : 47 min 23 s
Bit rate mode : Constant
Bit rate : 192 kb/s
Channel(s) : 2 channels
Channel layout : L R
Sampling rate : 48.0 kHz
Frame rate : 31.250 FPS (1536 SPF)
Bit depth : 16 bits
Compression mode : Lossy
Stream size : 65.1 MiB (2%)
Title : Original
Language : English
Service kind : Complete Main
Default : No
Forced : No

Text
ID : 4
Format : UTF-8
Codec ID : S_TEXT/UTF8
Codec ID/Info : UTF-8 Plain Text
Duration : 46 min 22 s
Bit rate : 68 b/s
Count of elements : 569
Stream size : 23.3 KiB (0%)
Language : English
Default : No
Forced : No

Menu
00:00:00.000 : en:00:00:00.000
00:09:24.981 : en:00:09:24.981
00:17:10.529 : en:00:17:10.529
00:32:33.910 : en:00:32:33.910
00:40:19.417 : en:00:40:19.417
Скріншоти:


Запис/зведення: sergiyko


Бронзовий реліз (на рейтинг впливає 75% завантаженого)
 Трекер:    Зареєстрований   

Завантажити / скачати серіал українською



відео для новачків



 Зареєстрований:   2019-09-18 12:26
 Розмір:   21.54 GB 
 Оцінка серіалу:   10/10 (Голосів: 7)
   
masterpiecer 
Відео Гуртом - підтримка та поширення
Відео Гуртом - підтримка та поширення


З нами з: 02.10.09
Востаннє: 30.11.20
Повідомлень: 859

2019-09-05 17:25  
Багатоголосий Двоголосий закадровий, Олександр Фурман і Ольга Гриськова, знову дякую за комплімент акторам Wide grin
leicheman 
Відео Гуртом - фільмокрай
Відео Гуртом - фільмокрай


З нами з: 03.07.14
Востаннє: 01.12.20
Повідомлень: 5697

2019-09-07 17:25  
Звук мабуть з супутника бо всього 10-11 кГц, якщо хочете можу писати вам з 14 кГц + 224 бітрет. Назарі є тіко 5 серія записана з такими параметрами.
sergiyko.5 
Забанено
Забанено


З нами з: 25.02.16
Востаннє: 29.10.20
Повідомлень: 3650

2019-09-07 17:54  
leicheman
А ви з чого пишите? Кидайте 5 серію, подивлюсь.

sergiyko.5 
Забанено
Забанено


З нами з: 25.02.16
Востаннє: 29.10.20
Повідомлень: 3650

2019-09-10 11:21  
Додав 3-6 серії. Як знайду звук до першої серії, торент буде оновлено.
ssTAss 
Модератор музики


З нами з: 05.07.08
Востаннє: 01.12.20
Повідомлень: 17060

2019-09-17 00:20  
є перша серія з архіву
якщо підходить, то тримайте http://bit.ly/2kMTBwB

sergiyko.5 
Забанено
Забанено


З нами з: 25.02.16
Востаннє: 29.10.20
Повідомлень: 3650

2019-09-17 07:41  
Дякую.
sergiyko.5 
Забанено
Забанено


З нами з: 25.02.16
Востаннє: 29.10.20
Повідомлень: 3650

2019-09-18 12:34  
Додав першу серію. Сезон повний. Другий сезон тут https://toloka.to/t104126
Ваш часовий пояс: GMT + 2 Години

Нова тема   Відповісти