Подвійний Форсаж / 2 Fast 2 Furious (2003) [Open Matte] 1080p 2xUkr/Eng | Sub Eng

Нові коментарі

Нова тема   Відповісти
Автор Повідомлення
Anonymous 







2019-09-03 22:48  
Подвійний Форсаж / 2 Fast 2 Furious (2003) [Open Matte] 1080p 2xUkr/Eng | Sub Eng

Подвійний Форсаж / 2 Fast 2 Furious (2003) [Open Matte] 1080p 2xUkr/Eng | Sub Eng


Жанр: екшн, пригодницький, трилер, бойовик
Країна: США, Німеччина
Кінокомпанія: Mikona Productions GmbH & Co. KG, Original Film, Universal Pictures
Режисер: Джон Синглтон
Актори: Пол Уокер, Тайріс Гібсон, Майкл Ілі, Джеймс Ремар, Девон Аокі

Сюжет:
Браян О'Коннор (Вокер) звільнився з ФБР, однак його талант гонщика та знання законів вуличних банд одного дня знадобились колишньому начальнику героя. Браяну доручили увійти в довіру до торговця наркотиками Картера Верона (Хаузер). Допомагають О?Коннору його давній приятель Роман Пірс і агент під прикриттям Моніка Фуентес...

Тривалість: 01:47:33
Якість:

Відео:
кодек:
розмір кадру: 1920 x 1080
бітрейт: 14 111 кб/с

Аудіо # 1:
мова: українська
переклад: багатоголосий закадровий
кодек: AC-3 5.1
бітрейт: 448 кб/с

Аудіо # 2:
мова: українська
переклад: багатоголосий закадровий
кодек: AC-3 2.0
бітрейт: 192 кб/с

Аудіо # 3:
мова: англійська
переклад: оригінал
кодек: E-AC-3 5.1
бітрейт: 640 кб/с

Субтитри # 1: (Full)
мова: англійська
тип: програмні (м'які)
формат: *.srt


Info
Код:
General
Unique ID                                : 239393187743942519940072684140450935431 (0xB419736C995054B826F2B13AB3F1F287)
Complete name                            : 2 Fast 2 Furious (2003) [Open Matte] 1080p [2xUKR_ENG] [Hurtom].
Format                                   :
Format version                           : Version 4
File size                                : 11.6 GiB
Duration                                 : 1 h 47 min
Overall bit rate mode                    : Variable
Overall bit rate                         : 15.4 Mb/s
Movie name                               : Подвійний Форсаж / 2 Fast 2 Furious (2003) [Open Matte]
Encoded date                             : UTC 2019-09-03 17:15:09
Writing application                      : v20.0.0 ('I Am The Sun') 64-bit
Writing library                          : libebml v1.3.5 + v1.4.8
Cover                                    : Yes
Attachments                              : Cover.jpg

Video
ID                                       : 1
Format                                   : AVC
Format/Info                              : Advanced Video Codec
Format profile                           : [email protected]
Format settings                          : CABAC / 4 Ref Frames
Format settings, CABAC                   : Yes
Format settings, Reference frames        : 4 frames
Codec ID                                 : V_MPEG4/ISO/AVC
Duration                                 : 1 h 47 min
Bit rate mode                            : Variable
Bit rate                                 : 14.1 Mb/s
Maximum bit rate                         : 15.0 Mb/s
Width                                    : 1 920 pixels
Height                                   : 1 080 pixels
Display aspect ratio                     : 16:9
Frame rate mode                          : Constant
Frame rate                               : 23.976 (24000/1001) FPS
Color space                              : YUV
Chroma subsampling                       : 4:2:0
Bit depth                                : 8 bits
Scan type                                : Progressive
Bits/(Pixel*Frame)                       : 0.284
Stream size                              : 10.6 GiB (92%)
Title                                    : Подвійний Форсаж / 2 Fast 2 Furious (2003) [Open Matte]
Language                                 : English
Default                                  : Yes
Forced                                   : No
Color range                              : Limited
Color primaries                          : BT.709
Transfer characteristics                 : BT.709
Matrix coefficients                      : BT.709

Audio #1
ID                                       : 2
Format                                   : AC-3
Format/Info                              : Audio Coding 3
Commercial name                          : Dolby Digital
Codec ID                                 : A_AC3
Duration                                 : 1 h 47 min
Bit rate mode                            : Constant
Bit rate                                 : 448 kb/s
Channel(s)                               : 6 channels
Channel layout                           : L R C LFE Ls Rs
Sampling rate                            : 48.0 kHz
Frame rate                               : 31.250 FPS (1536 SPF)
Bit depth                                : 16 bits
Compression mode                         : Lossy
Stream size                              : 345 MiB (3%)
Title                                    : / 5.1 Ch / 448 kbps / БЗ / ICTV
Language                                 : Ukrainian
Service kind                             : Complete Main
Default                                  : Yes
Forced                                   : Yes

Audio #2
ID                                       : 3
Format                                   : AC-3
Format/Info                              : Audio Coding 3
Commercial name                          : Dolby Digital
Codec ID                                 : A_AC3
Duration                                 : 1 h 47 min
Bit rate mode                            : Constant
Bit rate                                 : 192 kb/s
Channel(s)                               : 2 channels
Channel layout                           : L R
Sampling rate                            : 48.0 kHz
Frame rate                               : 31.250 FPS (1536 SPF)
Bit depth                                : 16 bits
Compression mode                         : Lossy
Stream size                              : 148 MiB (1%)
Title                                    : / 2.0 Ch / 192 kbps / БЗ / Kanal Ukraina
Language                                 : Ukrainian
Service kind                             : Complete Main
Default                                  : No
Forced                                   : No

Audio #3
ID                                       : 4
Format                                   : E-AC-3
Format/Info                              : Enhanced AC-3
Commercial name                          : Dolby Digital Plus
Codec ID                                 : A_EAC3
Duration                                 : 1 h 47 min
Bit rate mode                            : Constant
Bit rate                                 : 640 kb/s
Channel(s)                               : 6 channels
Channel layout                           : L R C LFE Ls Rs
Sampling rate                            : 48.0 kHz
Frame rate                               : 31.250 FPS (1536 SPF)
Compression mode                         : Lossy
Stream size                              : 492 MiB (4%)
Title                                    : E- / 5.1 Ch / 640 kbps / Original
Language                                 : English
Service kind                             : Complete Main
Default                                  : No
Forced                                   : No

Text
ID                                       : 5
Format                                   : UTF-8
Codec ID                                 : S_TEXT/UTF8
Codec ID/Info                            : UTF-8 Plain Text
Duration                                 : 1 h 39 min
Bit rate                                 : 51 b/s
Count of elements                        : 1134
Stream size                              : 37.6 KiB (0%)
Title                                    : Full
Language                                 : English
Default                                  : No
Forced                                   : No
Світлини




Джерело: &
Особиста оцінка: 10 - без зайвих вагань рекомендую всім!


Срібний реліз (на рейтинг впливає 50% завантаженого)
 Трекер:    Зареєстрований   

Завантажити / скачати фільм українською



відео для новачків



 Зареєстрований:   2019-09-03 22:48
 Розмір:   11.57 GB 
 Оцінка фільму:   9.6/10 (Голосів: 7)
   
Інші релізи
Ваш часовий пояс: GMT + 2 Години

Нова тема   Відповісти