Олд Скул (Сезон 1) / Schooled (Season 1) (2019) 1080p Ukr/Eng | sub Eng

Нові коментарі

Нова тема   Відповісти
Автор Повідомлення
Anonymous 







2019-09-03 20:22  
Олд Скул (Сезон 1) / Schooled (Season 1) (2019) 1080p Ukr/Eng | sub Eng

Олд Скул (Сезон 1) / Schooled (Season 1) (2019) 1080p Ukr/Eng | sub Eng


Жанр: комедія
Країна: США



Кінокомпанія: Adam F. Goldberg Productions, Marc Firek Productions, ABC Studios
Режисер: Марк Фірек (Marc Firek ), Адам Ф. Ґолдберг (Adam F. Goldberg)
Актори: Аманда Мішалка (AJ Michalka), Бретт Даєр (Brett Dier), Брайан Коллен (Bryan Callen), Тім Медоуз (Tim Meadows) та інші

Сюжет:
Спін-офф Ґолдбергів, події якого відбуваються вже у 90-х роках.
Після невдалої десятирічної музичної кар'єри Лейні Льюїс (найкраща подруга сестри Адама Ґолдберга) повертається у свою школу на посаду вчительки музики.


Тривалість: 1 серія: ~21 хв. (цілком серій: 13)
Перелік серій
01) Be Like Mike
02) Lainey's All That
03) Tamagotchis and Bells
04) I, Mellor
05) Money for RENT
06) Rock for Jocks
07) Kris Kross
08) Lainey and Erica's High School Reunion
09) Darth Mellor
10) There's No Fighting in Fight Club
11) Glascott Mascot
12) CB Likes Lainey
13) Dr. Barry
Якість:
Відео:
кодек:
розмір кадру: 1920 х 1080
бітрейт: 6-9 мб/с

Аудіо # 1:
мова: українська
переклад: багатоголосий закадровий | Paramount Comedy
кодек: 2.0
бітрейт: 192 кб/с

Аудіо # 2:
мова: англійська
переклад: оригінал
кодек: 5.1
бітрейт: 640 кб/с

Субтитри:
мова: англійська
тип: програмні (м'які)
формат: *.srt
Info
General
Unique ID : 252403840004225986715801783233787662962 (0xBDE3361B4FD80B04EF09C0687E531272)
Complete name : F:\Support\series\Schooled (Season 1) [, 1080p, Ukr, Eng]\Schooled. s01e01. Be Like Mike.
Format :
Format version : Version 4
File size : 1.26 GiB
Duration : 21 min 33 s
Overall bit rate : 8 382 kb/s
Encoded date : UTC 2019-09-02 18:34:53
Writing application : v37.0.0 ('Leave It') 64-bit
Writing library : libebml v1.3.9 + v1.5.2

Video
ID : 1
Format : AVC
Format/Info : Advanced Video Codec
Format profile : [email protected]
Format settings : CABAC / 4 Ref Frames
Format settings, CABAC : Yes
Format settings, ReFrames : 4 frames
Codec ID : V_MPEG4/ISO/AVC
Duration : 21 min 33 s
Bit rate : 7 548 kb/s
Width : 1 920 pixels
Height : 1 080 pixels
Display aspect ratio : 16:9
Frame rate mode : Constant
Frame rate : 23.976 (24000/1001) FPS
Color space : YUV
Chroma subsampling : 4:2:0
Bit depth : 8 bits
Scan type : Progressive
Bits/(Pixel*Frame) : 0.152
Stream size : 1.14 GiB (90%)
Language : English
Default : Yes
Forced : No
Color range : Limited
Color primaries : BT.709
Transfer characteristics : BT.709
Matrix coefficients : BT.709

Audio #1
ID : 2
Format : AC-3
Format/Info : Audio Coding 3
Commercial name : Dolby Digital
Codec ID : A_AC3
Duration : 21 min 33 s
Bit rate mode : Constant
Bit rate : 192 kb/s
Channel(s) : 2 channels
Channel layout : L R
Sampling rate : 48.0 kHz
Frame rate : 31.250 FPS (1536 SPF)
Bit depth : 16 bits
Compression mode : Lossy
Stream size : 29.6 MiB (2%)
Title : Paramount Comedy
Language : Ukrainian
Service kind : Complete Main
Default : Yes
Forced : No

Audio #2
ID : 3
Format : E-AC-3
Format/Info : Enhanced AC-3
Commercial name : Dolby Digital Plus
Codec ID : A_EAC3
Duration : 21 min 33 s
Bit rate mode : Constant
Bit rate : 640 kb/s
Channel(s) : 6 channels
Channel layout : L R C LFE Ls Rs
Sampling rate : 48.0 kHz
Frame rate : 31.250 FPS (1536 SPF)
Compression mode : Lossy
Stream size : 98.7 MiB (8%)
Language : English
Service kind : Complete Main
Default : No
Forced : No

Text
ID : 4
Format : UTF-8
Codec ID : S_TEXT/UTF8
Codec ID/Info : UTF-8 Plain Text
Duration : 21 min 25 s
Bit rate : 124 b/s
Count of elements : 600
Stream size : 19.5 KiB (0%)
Language : English
Default : No
Forced : No
Скріншоти

Українську доріжку взято з релізу https://toloka.to/t103523

Джерело: &
Особиста оцінка: 0 - не дивився





Бронзовий реліз (на рейтинг впливає 75% завантаженого)
 Трекер:    Зареєстрований   

Завантажити / скачати серіал українською



відео для новачків



 Зареєстрований:   2019-09-03 20:22
 Розмір:   16.69 GB 
 Оцінка серіалу:   10/10 (Голосів: 3)
   
Ваш часовий пояс: GMT + 2 Години

Нова тема   Відповісти