Брайтбьорн / Brightburn (2019) 1080p H.265 Ukr/Eng | Sub Ukr/Eng

Нові коментарі

Нова тема   Відповісти
Автор Повідомлення
Anonymous 







2019-09-03 18:01  
Брайтбьорн / Brightburn (2019) 1080p H.265 Ukr/Eng | Sub Ukr/Eng

Брайтбьорн / Brightburn (2019) 1080p H.265 Ukr/Eng | Sub Ukr/Eng


Жанр: жахи, фантастика
Країна: США
Кінокомпанія: Sony Pictures Worldwide Acquisitions (SPWA), The H Collective, Troll Court Entertainment
Режисер: Девід Яровескі
Актори: Елізабет Бенкс, Девід Денман, Джексон А. Данн, Абрахам Клінкскейлз, Метт Джонс, Мередіт Гагнер, Беккі Волстром

Сюжет:
Одного разу вночі дружина, яка давно не може завагітніти, знаходить в лісі немовля, і вони з чоловіком вирішують, що їхні молитви були почуті, й беруть дитину до себе додому. Але у міру того, як він стає старшим, батьки починають помічати за сином щось дивне. Виявляється, він прибув з іншої планети, щоб стати героєм для людства, але в результаті стає чимось зловісним.

Тривалість: 01:30:30
Якість:

Відео:
кодек: H.265 (HEVC)
розмір кадру: 1920 x 804
бітрейт: 7 688 кб/с
бітова глибина: 10 біт

Увага! Перед завантаженням переконайтесь, що ваш пристрій відтворення (та/або ПЗ) підтримує H.265 (HEVC)

Аудіо # 1:
мова: українська
переклад: професійний дубльований
кодек: AC-3 5.1
бітрейт: 384 кб/с

Аудіо # 2:
мова: англійська
переклад: оригінал
кодек: 5.1
бітрейт: 1510 кб/с

Субтитри # 1-2: (Forced, Full)
мова: українська
тип: програмні (м'які)
формат: *.srt

Субтитри # 3-5: (Full, SDH, Commentaries)
мова: англійська
тип: програмні (м'які)
формат: *.srt


Info
Код:
General
Unique ID                                : 244342140477778412081879928157042787872 (0xB7D295A1EF5EAF648932ADA7FE8A4620)
Complete name                            : Brightburn (2019) 1080p H.265 [UKR_ENG] [Hurtom].
Format                                   :
Format version                           : Version 4
File size                                : 6.06 GiB
Duration                                 : 1 h 30 min
Overall bit rate                         : 9 584 kb/s
Movie name                               : Брайтбьорн / Brightburn (2019)
Encoded date                             : UTC 2019-09-03 12:00:57
Writing application                      : v20.0.0 ('I Am The Sun') 64-bit
Writing library                          : libebml v1.3.5 + v1.4.8
Cover                                    : Yes
Attachments                              : Cover.jpg

Video
ID                                       : 1
Format                                   : HEVC
Format/Info                              : High Efficiency Video Coding
Format profile                           : Main [email protected]@High
Codec ID                                 : V_MPEGH/ISO/HEVC
Duration                                 : 1 h 30 min
Bit rate                                 : 7 688 kb/s
Width                                    : 1 920 pixels
Height                                   : 804 pixels
Display aspect ratio                     : 2.40:1
Frame rate mode                          : Constant
Frame rate                               : 23.976 (24000/1001) FPS
Color space                              : YUV
Chroma subsampling                       : 4:2:0
Bit depth                                : 10 bits
Bits/(Pixel*Frame)                       : 0.208
Stream size                              : 4.86 GiB (80%)
Title                                    : Брайтбьорн / Brightburn (2019)
Writing library                          : x265 3.1+7-147fb92c5ed5:[Windows][clang 8.0.0][64 bit] 10bit
Encoding settings                        : cpuid=1111039 / frame-threads=13 / wpp / no-pmode / no-pme / no-psnr / no-ssim / log-level=3 / input-csp=1 / input-res=1920x804 / interlace=0 / total-frames=0 / level-idc=41 / high-tier=1 / uhd-bd=0 / ref=5 / allow-non-conformance / no-repeat-headers / annexb / no-aud / no-hrd / info / hash=0 / no-temporal-layers / open-gop / min-keyint=23 / keyint=240 / gop-lookahead=0 / bframes=8 / b-adapt=2 / b-pyramid / bframe-bias=0 / rc-lookahead=60 / lookahead-slices=4 / scenecut=40 / radl=0 / no-splice / no-intra-refresh / ctu=64 / min-cu-size=8 / rect / amp / max-tu-size=32 / tu-inter-depth=4 / tu-intra-depth=4 / limit-tu=0 / rdoq-level=2 / dynamic-rd=0.00 / no-ssim-rd / signhide / no-tskip / nr-intra=0 / nr-inter=0 / no-constrained-intra / no-strong-intra-smoothing / max-merge=5 / limit-refs=2 / limit-modes / me=3 / subme=7 / merange=57 / temporal-mvp / no-hme / weightp / weightb / no-analyze-src-pics / deblock=-3:-3 / no-sao / no-sao-non-deblock / rd=6 / early-skip / no-rskip / no-fast-intra / no-tskip-fast / no-cu-lossless / b-intra / no-splitrd-skip / rdpenalty=0 / psy-rd=2.00 / psy-rdoq=1.00 / no-rd-refine / no-lossless / cbqpoffs=0 / crqpoffs=0 / rc=crf / crf=17.0 / qcomp=0.60 / qpstep=4 / stats-write=0 / stats-read=0 / vbv-maxrate=50000 / vbv-bufsize=50000 / vbv-init=0.9 / crf-max=30.0 / crf-min=0.0 / ipratio=1.40 / pbratio=1.30 / aq-mode=2 / aq-strength=1.00 / no-cutree / zone-count=0 / no-strict-cbr / qg-size=32 / no-rc-grain / qpmax=69 / qpmin=0 / no-const-vbv / sar=1 / overscan=0 / videoformat=5 / range=0 / colorprim=1 / transfer=1 / colormatrix=1 / chromaloc=0 / display-window=0cll=0,0 / min-luma=0 / max-luma=1023 / log2-max-poc-lsb=8 / vui-timing-info / vui-hrd-info / slices=1 / no-opt-qp-pps / no-opt-ref-list-length-pps / no-multi-pass-opt-rps / scenecut-bias=0.05 / no-opt-cu-delta-qp / no-aq-motion / no-hdr / no-hdr-opt / no-dhdr10-opt / no-idr-recovery-sei / analysis-reuse-level=5 / scale-factor=0 / refine-intra=0 / refine-inter=0 / refine-mv=0 / refine-ctu-distortion=0 / no-limit-sao / ctu-info=0 / no-lowpass-dct / refine-analysis-type=118 / copy-pic=1 / max-ausize-factor=1.0 / no-dynamic-refine / no-single-sei / no-hevc-aq / no-svt / no-field / qp-adaptation-range=1.00
Language                                 : English
Default                                  : Yes
Forced                                   : No
Color range                              : Limited
Color primaries                          : BT.709
Transfer characteristics                 : BT.709
Matrix coefficients                      : BT.709

Audio #1
ID                                       : 2
Format                                   : AC-3
Format/Info                              : Audio Coding 3
Commercial name                          : Dolby Digital
Codec ID                                 : A_AC3
Duration                                 : 1 h 30 min
Bit rate mode                            : Constant
Bit rate                                 : 384 kb/s
Channel(s)                               : 6 channels
Channel layout                           : L R C LFE Ls Rs
Sampling rate                            : 48.0 kHz
Frame rate                               : 31.250 FPS (1536 SPF)
Bit depth                                : 16 bits
Compression mode                         : Lossy
Stream size                              : 249 MiB (4%)
Title                                    : / 5.1 Ch / 384 kbps / ПД / iTunes
Language                                 : Ukrainian
Service kind                             : Complete Main
Default                                  : Yes
Forced                                   : Yes

Audio #2
ID                                       : 3
Format                                   :
Format/Info                              : Digital Theater Systems
Codec ID                                 : A_DTS
Duration                                 : 1 h 30 min
Bit rate mode                            : Constant
Bit rate                                 : 1 509 kb/s
Channel(s)                               : 6 channels
Channel layout                           : C L R Ls Rs LFE
Sampling rate                            : 48.0 kHz
Frame rate                               : 93.750 FPS (512 SPF)
Bit depth                                : 16 bits
Compression mode                         : Lossy
Stream size                              : 977 MiB (16%)
Title                                    : / 5.1 Ch / 1509 kbps / Original
Language                                 : English
Default                                  : No
Forced                                   : No

Text #1
ID                                       : 4
Format                                   : UTF-8
Codec ID                                 : S_TEXT/UTF8
Codec ID/Info                            : UTF-8 Plain Text
Duration                                 : 1 h 23 min
Bit rate                                 : 0 b/s
Count of elements                        : 8
Stream size                              : 531 Bytes (0%)
Title                                    : Forced
Language                                 : Ukrainian
Default                                  : Yes
Forced                                   : Yes

Text #2
ID                                       : 5
Format                                   : UTF-8
Codec ID                                 : S_TEXT/UTF8
Codec ID/Info                            : UTF-8 Plain Text
Duration                                 : 1 h 24 min
Bit rate                                 : 61 b/s
Count of elements                        : 892
Stream size                              : 38.3 KiB (0%)
Title                                    : Full
Language                                 : Ukrainian
Default                                  : No
Forced                                   : No

Text #3
ID                                       : 6
Format                                   : UTF-8
Codec ID                                 : S_TEXT/UTF8
Codec ID/Info                            : UTF-8 Plain Text
Duration                                 : 1 h 27 min
Bit rate                                 : 44 b/s
Count of elements                        : 1036
Stream size                              : 28.2 KiB (0%)
Title                                    : Full
Language                                 : English
Default                                  : No
Forced                                   : No

Text #4
ID                                       : 7
Format                                   : UTF-8
Codec ID                                 : S_TEXT/UTF8
Codec ID/Info                            : UTF-8 Plain Text
Duration                                 : 1 h 28 min
Bit rate                                 : 49 b/s
Count of elements                        : 1193
Stream size                              : 32.1 KiB (0%)
Title                                    : SDH
Language                                 : English
Default                                  : No
Forced                                   : No

Text #5
ID                                       : 8
Format                                   : UTF-8
Codec ID                                 : S_TEXT/UTF8
Codec ID/Info                            : UTF-8 Plain Text
Duration                                 : 1 h 30 min
Bit rate                                 : 106 b/s
Count of elements                        : 1578
Stream size                              : 70.3 KiB (0%)
Title                                    : Commentaries
Language                                 : English
Default                                  : No
Forced                                   : No

Menu
00:00:00.000                             : :Chapter 1
00:03:20.700                             : :Chapter 2
00:07:04.633                             : :Chapter 3
00:12:30.792                             : :Chapter 4
00:17:47.066                             : :Chapter 5
00:24:23.170                             : :Chapter 6
00:30:28.910                             : :Chapter 7
00:38:06.784                             : :Chapter 8
00:43:11.672                             : :Chapter 9
00:49:25.796                             : :Chapter 10
00:56:53.535                             : :Chapter 11
01:00:12.359                             : :Chapter 12
01:05:22.127                             : :Chapter 13
01:08:16.092                             : :Chapter 14
01:12:20.586                             : :Chapter 15
01:17:28.894                             : :Chapter 16
Світлини




Джерело: &
Особиста оцінка: 7 - моїй подрузі не сподобалося


 Трекер:    Зареєстрований   

Завантажити / скачати фільм українською



відео для новачків



 Зареєстрований:   2019-09-03 18:01
 Розмір:   6.06 GB 
 Оцінка фільму:   9.7/10 (Голосів: 3)
   
Інші релізи
   Брайтбьорн / Brightburn (2019) Remux 1080p Ukr/Eng | Sub Ukr/Eng staf777  3 / 0   19.21 GB   2019-08-21 18:16 
   Брайтбьорн / Brightburn (2019) 720p Ukr/Eng | Sub Ukr/Eng 11FrYkT  5 / 0   3.69 GB   2019-08-19 18:29 
   Брайтбьорн / Brightburn (2019) AVC Ukr/Eng | Sub Ukr/Eng 11FrYkT  8 / 1   1.7 GB   2019-08-17 21:52 
   Брайтбьорн / Brightburn (2019) 1080p Ukr/Eng | Sub Ukr/Eng antik_2008  13 / 0   7.26 GB   2019-08-15 21:28 
   Брайтбьорн / Brightburn (2019) UHD Remux 4K 2160p HDR H.265 Ukr/Eng | Sub Ukr/Eng antik_2008  4 / 0   39.64 GB   2019-08-15 19:59 
   Брайтбьорн / Brightburn (2019) antik_2008  9 / 5   1.45 GB   2019-08-15 19:50 
Ваш часовий пояс: GMT + 2 Години

Нова тема   Відповісти