Аладдін / Aladdin (2019) 1080p H.265 Ukr/Eng | Sub Eng

Нові коментарі

Нова тема   Відповісти
Автор Повідомлення
Anonymous 







2019-09-03 18:57  
Аладдін / Aladdin (2019) 1080p H.265 Ukr/Eng | Sub Eng

Аладдін / Aladdin (2019) 1080p H.265 Ukr/Eng | Sub Eng


Жанр: комедія, мюзикл, пригоди, романтика, сімейний, фентезі
Країна: США
Кінокомпанія: Walt Disney Pictures
Режисер: Ґай Річі
Актори: Мена Массуд, Наомі Скотт, Уілл Сміт, Біллі Магнуссен, Алан Тьюдік, Назим ПЕДРАДА, Марван Кензарі, Нуман Аджар, Френк Велкер, Навід Негабан

Сюжет:
Аграба – місто контрастів. У ньому живе дуже багато бідняків, які ледве зводять кінці з кінцями, іноді навіть переступаючи закон. Й у них на очах завжди є султанський палац, де люди явно не бідують. Одна випадкова зустріч злодюжки Аладіна із принцесою Жасмін вселила в серце хлопця любов. Але хто він, а хто вона? Його дріб'язкового стану явно не вистачить для того, щоб підкорити серце дівчини, яким би щирим і добрим хлопець не був. Але чистота Аладдіна знадобилася візирю Джафару – хлопець може допомогти йому добути бажану лампу із джином, яка знаходиться в зачарованій печері. Хлопцеві дійсно під силу її здобути – але йому ж необов'язково її віддавати Джафару, можна забрати джина собі, щоб той втілював усі бажання в життя.

Тривалість: 02:07:58
Якість:

Відео:
кодек: H.265 (HEVC)
розмір кадру: 1920 x 804
бітрейт: 6 496 кб/с
бітова глибина: 10 біт

Увага! Перед завантаженням переконайтесь, що ваш пристрій відтворення (та/або ПЗ) підтримує H.265 (HEVC)

Аудіо # 1:
мова: українська
переклад: професійний дубльований
кодек: 5.1
бітрейт: 1510 кб/с

Аудіо # 2:
мова: англійська
переклад: оригінал
кодек: 5.1
бітрейт: 1510 кб/с

Субтитри # 1-2: (Full, SDH)
мова: англійська
тип: програмні (м'які)
формат: *.srt


Info
Код:
General
Unique ID                                : 266799443127431732625097673612712770781 (0xC8B7B4237CCBA67825A6B18241507CDD)
Complete name                            : Aladdin (2019) 1080p H.265 [UKR_ENG] [Hurtom].
Format                                   :
Format version                           : Version 4
File size                                : 8.51 GiB
Duration                                 : 2 h 7 min
Overall bit rate                         : 9 517 kb/s
Movie name                               : Аладдін / Aladdin (2019)
Encoded date                             : UTC 2019-09-03 15:09:34
Writing application                      : v20.0.0 ('I Am The Sun') 64-bit
Writing library                          : libebml v1.3.5 + v1.4.8
Cover                                    : Yes
Attachments                              : Cover.jpg

Video
ID                                       : 1
Format                                   : HEVC
Format/Info                              : High Efficiency Video Coding
Format profile                           : Main [email protected]@High
Codec ID                                 : V_MPEGH/ISO/HEVC
Duration                                 : 2 h 7 min
Bit rate                                 : 6 496 kb/s
Width                                    : 1 920 pixels
Height                                   : 804 pixels
Display aspect ratio                     : 2.40:1
Frame rate mode                          : Constant
Frame rate                               : 23.976 (24000/1001) FPS
Color space                              : YUV
Chroma subsampling                       : 4:2:0
Bit depth                                : 10 bits
Bits/(Pixel*Frame)                       : 0.176
Stream size                              : 5.81 GiB (68%)
Title                                    : Аладдін / Aladdin (2019)
Writing library                          : x265 3.1+7-147fb92c5ed5:[Windows][clang 8.0.0][64 bit] 10bit
Encoding settings                        : cpuid=1111039 / frame-threads=13 / wpp / no-pmode / no-pme / no-psnr / no-ssim / log-level=3 / input-csp=1 / input-res=1920x804 / interlace=0 / total-frames=0 / level-idc=41 / high-tier=1 / uhd-bd=0 / ref=5 / allow-non-conformance / no-repeat-headers / annexb / no-aud / no-hrd / info / hash=0 / no-temporal-layers / open-gop / min-keyint=23 / keyint=240 / gop-lookahead=0 / bframes=8 / b-adapt=2 / b-pyramid / bframe-bias=0 / rc-lookahead=60 / lookahead-slices=4 / scenecut=40 / radl=0 / no-splice / no-intra-refresh / ctu=64 / min-cu-size=8 / rect / amp / max-tu-size=32 / tu-inter-depth=4 / tu-intra-depth=4 / limit-tu=0 / rdoq-level=2 / dynamic-rd=0.00 / no-ssim-rd / signhide / no-tskip / nr-intra=0 / nr-inter=0 / no-constrained-intra / no-strong-intra-smoothing / max-merge=5 / limit-refs=2 / limit-modes / me=3 / subme=7 / merange=57 / temporal-mvp / no-hme / weightp / weightb / no-analyze-src-pics / deblock=-3:-3 / no-sao / no-sao-non-deblock / rd=6 / early-skip / no-rskip / no-fast-intra / no-tskip-fast / no-cu-lossless / b-intra / no-splitrd-skip / rdpenalty=0 / psy-rd=2.00 / psy-rdoq=1.00 / no-rd-refine / no-lossless / cbqpoffs=0 / crqpoffs=0 / rc=crf / crf=19.5 / qcomp=0.60 / qpstep=4 / stats-write=0 / stats-read=0 / vbv-maxrate=50000 / vbv-bufsize=50000 / vbv-init=0.9 / crf-max=30.0 / crf-min=0.0 / ipratio=1.40 / pbratio=1.30 / aq-mode=2 / aq-strength=1.00 / no-cutree / zone-count=0 / no-strict-cbr / qg-size=32 / no-rc-grain / qpmax=69 / qpmin=0 / no-const-vbv / sar=1 / overscan=0 / videoformat=5 / range=0 / colorprim=1 / transfer=1 / colormatrix=1 / chromaloc=0 / display-window=0cll=0,0 / min-luma=0 / max-luma=1023 / log2-max-poc-lsb=8 / vui-timing-info / vui-hrd-info / slices=1 / no-opt-qp-pps / no-opt-ref-list-length-pps / no-multi-pass-opt-rps / scenecut-bias=0.05 / no-opt-cu-delta-qp / no-aq-motion / no-hdr / no-hdr-opt / no-dhdr10-opt / no-idr-recovery-sei / analysis-reuse-level=5 / scale-factor=0 / refine-intra=0 / refine-inter=0 / refine-mv=0 / refine-ctu-distortion=0 / no-limit-sao / ctu-info=0 / no-lowpass-dct / refine-analysis-type=267 / copy-pic=1 / max-ausize-factor=1.0 / no-dynamic-refine / no-single-sei / no-hevc-aq / no-svt / no-field / qp-adaptation-range=1.00
Default                                  : Yes
Forced                                   : No
Color range                              : Limited
Color primaries                          : BT.709
Transfer characteristics                 : BT.709
Matrix coefficients                      : BT.709

Audio #1
ID                                       : 2
Format                                   :
Format/Info                              : Digital Theater Systems
Codec ID                                 : A_DTS
Duration                                 : 2 h 7 min
Bit rate mode                            : Constant
Bit rate                                 : 1 509 kb/s
Channel(s)                               : 6 channels
Channel layout                           : C L R Ls Rs LFE
Sampling rate                            : 48.0 kHz
Frame rate                               : 93.750 FPS (512 SPF)
Bit depth                                : 24 bits
Compression mode                         : Lossy
Stream size                              : 1.35 GiB (16%)
Title                                    : / 5.1 Ch / 1509 kbps / ПД
Language                                 : Ukrainian
Default                                  : Yes
Forced                                   : Yes

Audio #2
ID                                       : 3
Format                                   :
Format/Info                              : Digital Theater Systems
Codec ID                                 : A_DTS
Duration                                 : 2 h 7 min
Bit rate mode                            : Constant
Bit rate                                 : 1 509 kb/s
Channel(s)                               : 6 channels
Channel layout                           : C L R Ls Rs LFE
Sampling rate                            : 48.0 kHz
Frame rate                               : 93.750 FPS (512 SPF)
Bit depth                                : 24 bits
Compression mode                         : Lossy
Stream size                              : 1.35 GiB (16%)
Title                                    : / 5.1 Ch / 1509 kbps / Original
Language                                 : English
Default                                  : No
Forced                                   : No

Text #1
ID                                       : 4
Format                                   : UTF-8
Codec ID                                 : S_TEXT/UTF8
Codec ID/Info                            : UTF-8 Plain Text
Duration                                 : 1 h 58 min
Bit rate                                 : 50 b/s
Count of elements                        : 1682
Stream size                              : 43.4 KiB (0%)
Title                                    : Full
Language                                 : English
Default                                  : No
Forced                                   : No

Text #2
ID                                       : 5
Format                                   : UTF-8
Codec ID                                 : S_TEXT/UTF8
Codec ID/Info                            : UTF-8 Plain Text
Duration                                 : 2 h 7 min
Bit rate                                 : 74 b/s
Count of elements                        : 2435
Stream size                              : 69.7 KiB (0%)
Title                                    : SDH
Language                                 : English
Default                                  : No
Forced                                   : No

Menu
00:00:00.000                             : :Chapter 1
00:13:36.732                             : :Chapter 2
00:28:24.869                             : :Chapter 3
00:46:23.572                             : :Chapter 4
01:03:23.716                             : :Chapter 5
01:20:08.929                             : :Chapter 6
01:32:32.088                             : :Chapter 7
01:46:36.973                             : :Chapter 8
01:58:16.172                             : :Chapter 9
02:06:31.750                             : :Chapter 10
Світлини




Джерело: &
Особиста оцінка: 0 - не дивився


 Трекер:    Зареєстрований   

Завантажити / скачати фільм українською



відео для новачків



 Зареєстрований:   2019-09-03 18:57
 Розмір:   8.51 GB 
 Оцінка фільму:   9.8/10 (Голосів: 8)
   
Інші релізи
   Аладдін / Aladdin (2019) 1080p 3D [Half OverUnder] Ukr/Eng | Sub Eng [16:9 Cropped] дядя1111  8 / 2   8.58 GB   2019-09-14 16:11 
   Аладдін / Aladdin (2019) UHD mini 4K 2160p HDR x265 Ukr/Eng | Sub Eng Babamin  10 / 0   16.58 GB   2019-09-07 10:36 
   Аладдін / Aladdin (2019) UHD Remux 4K 2160p HDR H.265 Ukr/Eng | Sub Eng antik_2008  18 / 1   52.91 GB   2019-09-02 23:58 
   Аладдін / Aladdin (2019) antik_2008  82 / 1   2.18 GB   2019-09-01 00:39 
   Аладдін / Aladdin (2019) Remux 1080p Ukr/Eng | Sub Eng antik_2008  36 / 0   33.78 GB   2019-09-01 00:01 
   Аладдін / Aladdin (2019) 1080p Ukr/Eng | Sub Eng antik_2008  54 / 1   16.68 GB   2019-08-31 22:54 
   Аладдін / Aladdin (2019) 1080p H.265 Ukr/Eng | Sub Eng antik_2008  39 / 3   10.41 GB   2019-08-31 22:19 
   Аладдін / Aladdin (2019) 720p Ukr/Eng | Sub Eng 11FrYkT  115 / 1   6.71 GB   2019-08-31 20:21 
   Аладдін / Aladdin (2019) AVC Ukr/Eng | Sub Eng 11FrYkT  93 / 0   2.41 GB   2019-08-31 17:22 
Anonymous 







2019-09-03 18:59  
У цьому релізі набагато кращі налаштування encoder-a.
vash1 
Поважний учасник


З нами з: 16.03.16
Востаннє: 15.09.19
Повідомлень: 207

2019-09-03 20:04  
Anonymous написано:
У цьому релізі набагато кращі налаштування encoder-a.

угу Happy

ALF007 
Частий відвідувач


З нами з: 30.09.11
Востаннє: 15.09.19
Повідомлень: 36

2019-09-03 20:27  
Привіт, з яким кодеком краще дивитися фільми 1080p на ноуті, з H.265 чи , де буде краща якість?
igor911 
Модератор відео


З нами з: 18.01.08
Востаннє: 16.09.19
Повідомлень: 13339

2019-09-03 22:29  
ALF007 написано:
з яким кодеком краще дивитися фільми 1080p на ноуті, з H.265 чи , де буде краща якість?

Трохи некоректне питання. Якість буде краща там, де кращі налаштування кодування та достатній для збереження оригінальної якості бітрейт.

Додано через 14 хвилин 3 секунди:

Anonymous написано:
У цьому релізі набагато кращі налаштування encoder-a.

тут crf=19.5, там crf=16.5. Які саме налаштування кодування тут набагато кращі?

Додано через 5 хвилин 3 секунди:

чи зможе "me=3 / subme=7 / merange=57" проти "me=2 / subme=7 / merange=48" додати якості більше, ніж програш 3х одиниць crf на користь іншого ріпу?

Anonymous 







2019-09-03 22:29  
Ці -
Код:
rect / amp / me=3 / tu-inter-depth=4 / tu-intra-depth=4 / rdoq-level=2 / rd=6 / psy-rdoq=1.00 / deblock=-3:-3

Shaleniy_kit 
Новенький


З нами з: 05.09.19
Востаннє: 05.09.19
Повідомлень: 1

2019-09-05 15:21  
Дуже дякую, шановне панство, за дубляж. Пiснi на солов'їній мові звучать неймовiрно круто!
vash1 
Поважний учасник


З нами з: 16.03.16
Востаннє: 15.09.19
Повідомлень: 207

2019-09-05 20:42  
igor911 наскільки я памятаю у попередньому ріпі ще були deblock 0:0 та sao
ці 2 параметри роблять картинку більш розмитою

ось медіаінфо старого релізу
"Aladdin - old"
Video
ID : 1
Format : HEVC
Format/Info : High Efficiency Video Coding
Format profile : Main [email protected]@Main
Codec ID : V_MPEGH/ISO/HEVC
Duration : 2 h 7 min
Bit rate : 7 985 kb/s
Width : 1 920 pixels
Height : 804 pixels
Display aspect ratio : 2.40:1
Frame rate mode : Constant
Frame rate : 23.976 (23976/1000) FPS
Color space : YUV
Chroma subsampling : 4:2:0
Bit depth : 10 bits
Bits/(Pixel*Frame) : 0.216
Stream size : 7.14 GiB (69%)
Title : Aladdin 2019 BluRay 1080p .x265.10bit-CHD
Writing library : x265 2.7+15-b9f5b5d7bf95:[Windows][MSVC 1800][64 bit] 10bit
Encoding settings : cpuid=1173503 / frame-threads=4 / numa-pools=16 / wpp / no-pmode / no-pme / no-psnr / no-ssim / log-level=2 / input-csp=1 / input-res=1920x804 / interlace=0 / total-frames=0 / level-idc=0 / high-tier=1 / uhd-bd=0 / ref=6 / no-allow-non-conformance / repeat-headers / annexb / no-aud / no-hrd / info / hash=0 / no-temporal-layers / no-open-gop / min-keyint=23 / keyint=250 / gop-lookahead=0 / bframes=8 / b-adapt=2 / b-pyramid / bframe-bias=0 / rc-lookahead=24 / lookahead-slices=5 / scenecut=40 / radl=0 / no-intra-refresh / ctu=64 / min-cu-size=8 / no-rect / no-amp / max-tu-size=32 / tu-inter-depth=1 / tu-intra-depth=1 / limit-tu=0 / rdoq-level=0 / dynamic-rd=0.00 / no-ssim-rd / signhide / no-tskip / nr-intra=0 / nr-inter=0 / no-constrained-intra / no-strong-intra-smoothing / max-merge=2 / limit-refs=3 / no-limit-modes / me=2 / subme=7 / merange=48 / temporal-mvp / weightp / weightb / no-analyze-src-pics / deblock=0:0 / sao / no-sao-non-deblock / rd=4 / no-early-skip / rskip / no-fast-intra / no-tskip-fast / no-cu-lossless / no-b-intra / no-splitrd-skip / rdpenalty=0 / psy-rd=2.00 / psy-rdoq=0.00 / no-rd-refine / no-lossless / cbqpoffs=0 / crqpoffs=0 / rc=crf / crf=16.5 / qcomp=0.60 / qpstep=4 / stats-write=0 / stats-read=0 / ipratio=1.40 / pbratio=1.30 / aq-mode=3 / aq-strength=1.00 / cutree / zone-count=0 / no-strict-cbr / qg-size=32 / no-rc-grain / qpmax=69 / qpmin=0 / no-const-vbv / sar=0 / overscan=0 / videoformat=5 / range=0 / colorprim=2 / transfer=2 / colormatrix=2 / chromaloc=0 / display-window=0 / max-cll=0,0 / min-luma=0 / max-luma=1023 / log2-max-poc-lsb=8 / vui-timing-info / vui-hrd-info / slices=1 / no-opt-qp-pps / no-opt-ref-list-length-pps / no-multi-pass-opt-rps / scenecut-bias=0.05 / no-opt-cu-delta-qp / aq-motion / no-hdr / no-hdr-opt / no-dhdr10-opt / no-idr-recovery-sei / analysis-reuse-level=5 / scale-factor=0 / refine-intra=0 / refine-inter=0 / refine-mv=0 / no-limit-sao / ctu-info=0 / no-lowpass-dct / refine-mv-type=0 / copy-pic=1 / max-ausize-factor=1.0 / no-dynamic-refine
Language : English
Default : Yes
Forced : No
треба порівняти сріншоти

Ваш часовий пояс: GMT + 2 Години

Нова тема   Відповісти