Стиль виживання на 5+ / Survive Style 5+ (2004) Ukr/Jap | Sub Ukr/Eng

Нові коментарі

Нова тема   Відповісти
Автор Повідомлення
Arch Enemy 
VIP


З нами з: 30.08.12
Востаннє: 18.10.19
Повідомлень: 1723

2019-09-03 14:50  
Стиль виживання на 5+ / Survive Style 5+ (2004)




Жанр: комедія, містика, драма, триллер
Країна: Японія



Кінокомпанія: Tohokushinsha Film Corporation (TFC)
Режисер: Ґен Секіґучі
Актори: Таданобу Асано, Рейка Хашімото, Кьоко Коізумі, Хіроші Абе, Іттоку Кішібе, Юмі Асо, Канджі Цуда, Йошіюкі Морішіта, Джай Вест, Йошійоші Аракава, Вінні Джонс, Шінічі Чіба, Шіхорі Канджія, Томоказу Міура, Рюноске Камікі та інші.

Сюжет:
Фільм складається з п'яти, тісно пов'язаних сюжетних ліній. Утомлений від сімейного життя чоловік убиває свою дружину і ховає її в лісі, тільки щоб, повернувшись додому, знайти її живою і оскаженілою через його витівку... Спокій іншого сімейства порушується, коли загіпнотизований батько стає пташкою і намагається навчитися літати... Тріо затятих злодіїв розбирається в своїх непростих стосунках... Копірайтерка великого рекламного агенства всюди бачить ідеї для рекламних роликів і намагається продати їх консервативним замовникам... Історії перетинаються завдяки втручанню найманого вбивці та його перекладача.

Тривалість: 01:59:55

Відео:
якість:
контейнер:
кодек:
розмір кадру: 704x464 (855x464) пікс.
бітрейт: ~1250 кбіт/сек.

Аудіо # 1:
мова: українська,
озвучення: багатоголосе закадрове
кодек: 2.0
бітрейт: 256 кбіт/сек.

Аудіо # 2:
мова: японська
озвучення: оригінал
кодек: 5.1
бітрейт: 300 кбіт/сек.


Субтитри # 1:
мова: українська
тип: програмні (м'які)
формат:

Субтитри # 2:
мова: англійська
тип: програмні (м'які)
формат: SRT

Джерело перекладу та озвучення: AniUA
Info
General
Unique ID : 30773966409782821620993065490846961356 (0x1726D9AFFCFA73C7AF8E04A9BFF1CECC)
Complete name : D:\Films\Survive.Style.5+..AniUA.
Format :
Format version : Version 4
File size : 1.51 GiB
Duration : 1 h 59 min
Overall bit rate : 1 804 kb/s
Movie name : Стиль виживання на 5+ / Survive Style 5+ [2004]
Encoded date : UTC 2019-09-03 10:24:51
Writing application : v26.0.0 ('In The Game') 64-bit
Writing library : libebml v1.3.6 + v1.4.9
Cover : Yes
Attachments : cover.jpg

Video
ID : 1
Format : AVC
Format/Info : Advanced Video Codec
Format profile : [email protected]
Format settings : CABAC / 9 Ref Frames
Format settings, CABAC : Yes
Format settings, Reference : 9 frames
Codec ID : V_MPEG4/ISO/AVC
Duration : 1 h 59 min
Bit rate : 1 246 kb/s
Width : 704 pixels
Height : 464 pixels
Display aspect ratio : 1.85:1
Original display aspect rat : 1.85:1
Frame rate mode : Constant
Frame rate : 23.976 (24000/1001) FPS
Color space : YUV
Chroma subsampling : 4:2:0
Bit depth : 8 bits
Scan type : Progressive
Bits/(Pixel*Frame) : 0.159
Stream size : 1.04 GiB (69%)
Title : Стиль виживання на 5+ / Survive Style 5+
Writing library : core 142 r2479kMod dd79a61
Encoding settings : cabac=1 / ref=9 / deblock=1:-1:-1 / analyse=0x3:0x133 / me=umh / subme=9 / psy=1 / fade_compensate=0.00 / psy_rd=1.00:0.15 / mixed_ref=1 / me_range=32 / chroma_me=1 / trellis=2 / 8x8dct=1 / cqm=0 / deadzone=21,11 / fast_pskip=0 / chroma_qp_offset=-3 / threads=6 / lookahead_threads=1 / sliced_threads=0 / nr=0 / decimate=1 / interlaced=0 / bluray_compat=0 / constrained_intra=0 / fgo=0 / bframes=9 / b_pyramid=2 / b_adapt=2 / b_bias=0 / direct=3 / weightb=1 / open_gop=0 / weightp=2 / keyint=240 / keyint_min=23 / scenecut=40 / intra_refresh=0 / rc_lookahead=60 / rc=2pass / mbtree=0 / bitrate=1246 / ratetol=1.0 / qcomp=0.60 / qpmin=0 / qpmax=69 / qpstep=4 / cplxblur=20.0 / qblur=0.5 / vbv_maxrate=5000 / vbv_bufsize=5000 / nal_hrd=none / filler=0 / ip_ratio=1.40 / pb_ratio=1.30 / aq=1:1.00 / zones=168192,172511,q=40
Language : Japanese
Default : Yes
Forced : Yes

Audio #1
ID : 2
Format : LC
Format/Info : Advanced Audio Codec Low Complexity
Codec ID : A_AAC-2
Duration : 1 h 59 min
Bit rate : 256 kb/s
Channel(s) : 2 channels
Channel layout : L R
Sampling rate : 48.0 kHz
Frame rate : 46.875 FPS (1024 SPF)
Compression mode : Lossy
Stream size : 220 MiB (14%)
Title : AniUA MVO
Language : Ukrainian
Default : Yes
Forced : Yes

Audio #2
ID : 3
Format : LC
Format/Info : Advanced Audio Codec Low Complexity
Codec ID : A_AAC-2
Duration : 1 h 59 min
Bit rate : 299 kb/s
Channel(s) : 6 channels
Channel layout : C L R Ls Rs LFE
Sampling rate : 48.0 kHz
Frame rate : 46.875 FPS (1024 SPF)
Compression mode : Lossy
Delay relative to video : 9 ms
Stream size : 256 MiB (17%)
Title : Original
Language : Japanese
Default : No
Forced : No

Text #1
ID : 4
Format :
Codec ID : S_TEXT/
Codec ID/Info : Advanced Sub Station Alpha
Duration : 1 h 53 min
Bit rate : 74 b/s
Count of elements : 990
Compression mode : Lossless
Stream size : 61.4 KiB (0%)
Title : Ukrainian - AniUA
Language : Ukrainian
Default : No
Forced : No

Text #2
ID : 5
Format : UTF-8
Codec ID : S_TEXT/UTF8
Codec ID/Info : UTF-8 Plain Text
Duration : 1 h 59 min
Bit rate : 21 b/s
Count of elements : 850
Stream size : 19.2 KiB (0%)
Title : English
Language : English
Default : No
Forced : No
Скріншоти



Авторський реліз (завантажувати можна без реєстрації)
 Трекер:    Зареєстрований   

Завантажити / скачати фільм українською



відео для новачків



 Зареєстрований:   2019-09-03 14:50
 Розмір:   1.51 GB 
 Оцінка фільму:   9.7/10 (Голосів: 6)
   
taksist 
Попереджень: 1
Попереджень: 1 


З нами з: 10.12.12
Востаннє: 19.10.19
Повідомлень: 267

2019-09-03 21:26  
якась стрьомна каламуть... хто вже дивився?
Гонта 
Свій


З нами з: 16.12.09
Востаннє: 18.10.19
Повідомлень: 132

2019-09-04 23:21  
Надзвичайно цікавий фільм! Дякую за реліз українською!!!!
kinoroman 
Свій


З нами з: 04.12.16
Востаннє: 18.10.19
Повідомлень: 93

2019-09-28 18:17  
Хороший фільм. Артхаусно-яскравий, кумедний, зворушливий. 8/10.
Дякую всім причетним до релізу.

Ваш часовий пояс: GMT + 2 Години

Нова тема   Відповісти