Крутий хлопець / The New Guy (2002) 1080p 3xUkr/Eng | Sub Eng

Нові коментарі

Нова тема   Відповісти
Останній раз роздавалося MakRA (2019-11-12)
Автор Повідомлення
MakRA 
VIP


З нами з: 10.11.18
Востаннє: 12.11.19
Повідомлень: 491

2019-09-02 22:15  
Крутий хлопець / The New Guy (2002) 1080p 3xUkr/Eng | Sub Eng



Альтернативні обкладинки:


Жанр: комедія
Країна: США



Кінокомпанія: Revolution Studios, Bedlam Pictures, Frontier Pictures
Режисер: Ед Дектер [Ed Decter]
Актори: ДіДжей Куоллс [DJ Qualls], Елайза Душку [Eliza Dushku], Зої Дешанель [Zooey Deschanel], Джерод Міксон [Jerod Mixon], Паррі Шен [Parry Shen], Лайл Лаветт [Lyle Lovett], Едді Ґріффін [Eddie Griffin], Санні Мабрі [Sunny Mabrey], Росс Паттерсон [Ross Patterson], Оратіо Санс [Horatio Sanz]

Сюжет:
У звичайній середній школі з'являється новий хлопець - Гіл Харіс. Він сам Містер Популярність. Загадковий і чарівний Гіл без труднощів завойовує серця дівчат.Однак у нового найпопулярнішого хлопця в школі є своя таємниця. Ще зовсім недавно його звали Діззі, він вчився в іншій школі і був там невдахою.

Але як же малопривабливий Діззі перетворився з блискучого Гіла, улюбленця всієї школи? Просто Діззі захотів змінитися.Один з хлопців, Лютер, розповів йому кілька секретів, які гарантували Діззі популярність.

Неухильно виконуючи ради Лютера, - Діззі зміг домогтися успіху в новій школі. Однак новий хлопець подобається далеко не всім учням школи ...


Тривалість: 01:28:31
Якість: 1080p
Відео:
кодек:
розмір кадру: 1920 х 1040
бітрейт: 12,7 Mб/с

Аудіо # 1:
мова: українська
переклад: багатоголосий закадровий
кодек: 2.0
бітрейт: 192 кб/с

Аудіо # 2:
мова: українська
переклад: багатоголосий закадровий
кодек: 2.0
бітрейт: 192 кб/с

Аудіо # 3:
мова: українська
переклад: багатоголосий закадровий
кодек: 2.0
бітрейт: 192 кб/с

Аудіо # 4:
мова: англійська
переклад: оригінал
кодек: 5.1
бітрейт: 448 кб/с

Аудіо # 5:
мова: англійська
переклад: оригінал
кодек: 2.0
бітрейт: 192 кб/с

Субтитри # 1: (Full)
мова: англійська
тип: програмні (м'які)
формат: *.srt

Субтитри # 2: (SDH)
мова: англійська
тип: програмні (м'які)
формат: *.srt

Збережено оригінальні розділи, як на Blu-ray.
Info
General
Unique ID : 54825970462690072542920591403646775772 (0x293F190B05662D249D0D799B325CF1DC)
Complete name : F:\Комедії\The New Guy (2002) 1080p 3xUkrEng Sub Eng [Hurtom].
Format :
Format version : Version 4
File size : 8.60 GiB
Duration : 1 h 28 min
Overall bit rate mode : Variable
Overall bit rate : 13.9 Mb/s
Movie name : Крутий хлопець / The New Guy (2002) 1080p 3xUkr/Eng | Sub Eng [Hurtom]
Encoded date : UTC 2019-09-02 18:54:46
Writing application : v25.0.0 ('Prog Noir') 64-bit
Writing library : libebml v1.3.6 + v1.4.9
Cover : Yes
Attachments : cover.jpg

Video
ID : 1
Format : AVC
Format/Info : Advanced Video Codec
Format profile : [email protected]
Format settings : CABAC / 4 Ref Frames
Format settings, CABAC : Yes
Format settings, Reference : 4 frames
Codec ID : V_MPEG4/ISO/AVC
Duration : 1 h 28 min
Bit rate mode : Variable
Bit rate : 12.7 Mb/s
Maximum bit rate : 15.0 Mb/s
Width : 1 920 pixels
Height : 1 040 pixels
Display aspect ratio : 1.85:1
Frame rate mode : Constant
Frame rate : 23.976 (24000/1001) FPS
Color space : YUV
Chroma subsampling : 4:2:0
Bit depth : 8 bits
Scan type : Progressive
Bits/(Pixel*Frame) : 0.265
Stream size : 7.84 GiB (91%)
Title : The New Guy (2002) 1080p 3xUkr/Eng | Sub Eng [Hurtom]
Language : Ukrainian
Default : Yes
Forced : Yes
Color range : Limited
Color primaries : BT.709
Transfer characteristics : BT.709
Matrix coefficients : BT.709

Audio #1
ID : 2
Format : AC-3
Format/Info : Audio Coding 3
Commercial name : Dolby Digital
Codec ID : A_AC3
Duration : 1 h 28 min
Bit rate mode : Constant
Bit rate : 192 kb/s
Channel(s) : 2 channels
Channel layout : L R
Sampling rate : 48.0 kHz
Frame rate : 31.250 FPS (1536 SPF)
Bit depth : 16 bits
Compression mode : Lossy
Delay relative to video : 8 ms
Stream size : 122 MiB (1%)
Title : MVO [AMC] 2.0
Language : Ukrainian
Service kind : Complete Main
Default : Yes
Forced : Yes

Audio #2
ID : 3
Format : AC-3
Format/Info : Audio Coding 3
Commercial name : Dolby Digital
Codec ID : A_AC3
Duration : 1 h 28 min
Bit rate mode : Constant
Bit rate : 192 kb/s
Channel(s) : 2 channels
Channel layout : L R
Sampling rate : 48.0 kHz
Frame rate : 31.250 FPS (1536 SPF)
Bit depth : 16 bits
Compression mode : Lossy
Delay relative to video : 8 ms
Stream size : 122 MiB (1%)
Title : MVO [НОВИЙ] 2.0
Language : Ukrainian
Service kind : Complete Main
Default : No
Forced : No

Audio #3
ID : 4
Format : AC-3
Format/Info : Audio Coding 3
Commercial name : Dolby Digital
Codec ID : A_AC3
Duration : 1 h 28 min
Bit rate mode : Constant
Bit rate : 192 kb/s
Channel(s) : 2 channels
Channel layout : L R
Sampling rate : 48.0 kHz
Frame rate : 31.250 FPS (1536 SPF)
Bit depth : 16 bits
Compression mode : Lossy
Delay relative to video : 8 ms
Stream size : 122 MiB (1%)
Title : MVO [K1] 2.0
Language : Ukrainian
Service kind : Complete Main
Default : No
Forced : No

Audio #4
ID : 5
Format : AC-3
Format/Info : Audio Coding 3
Commercial name : Dolby Digital
Codec ID : A_AC3
Duration : 1 h 28 min
Bit rate mode : Constant
Bit rate : 448 kb/s
Channel(s) : 6 channels
Channel layout : L R C LFE Ls Rs
Sampling rate : 48.0 kHz
Frame rate : 31.250 FPS (1536 SPF)
Bit depth : 16 bits
Compression mode : Lossy
Stream size : 284 MiB (3%)
Title : Original 5.1
Language : English
Service kind : Complete Main
Default : No
Forced : No

Audio #5
ID : 6
Format : AC-3
Format/Info : Audio Coding 3
Commercial name : Dolby Digital
Codec ID : A_AC3
Duration : 1 h 28 min
Bit rate mode : Constant
Bit rate : 192 kb/s
Channel(s) : 2 channels
Channel layout : L R
Sampling rate : 48.0 kHz
Frame rate : 31.250 FPS (1536 SPF)
Bit depth : 16 bits
Compression mode : Lossy
Delay relative to video : 8 ms
Stream size : 122 MiB (1%)
Title : Original 2.0
Language : English
Service kind : Complete Main
Default : No
Forced : No

Text #1
ID : 7
Format : UTF-8
Codec ID : S_TEXT/UTF8
Codec ID/Info : UTF-8 Plain Text
Duration : 1 h 22 min
Bit rate : 49 b/s
Count of elements : 911
Stream size : 29.6 KiB (0%)
Title : Eng (Full)
Language : English
Default : No
Forced : No

Text #2
ID : 8
Format : UTF-8
Codec ID : S_TEXT/UTF8
Codec ID/Info : UTF-8 Plain Text
Duration : 1 h 27 min
Bit rate : 78 b/s
Count of elements : 1717
Stream size : 50.6 KiB (0%)
Title : Eng (SDH)
Language : English
Default : No
Forced : No

Menu
00:00:00.000 : en:Start
00:03:35.000 : en:First day, senior year
00:06:21.000 : en:"MINE!"
00:09:28.000 : en:Dizzy gets the spirit
00:11:26.000 : en:A lesson in bad
00:14:18.000 : en:Grounds for expulsion
00:17:17.000 : en:Building toughness
00:22:18.000 : en:Gil Harris
00:24:47.000 : en:Biggest & baddest competition
00:29:54.000 : en:Babe magnet
00:34:20.000 : en:Grand entrance
00:36:39.000 : en:"Gil blew me off."
00:37:35.000 : en:Earth's most outrageous woman
00:40:27.000 : en:Surrounded with love
00:45:10.000 : en:Team spirit
00:48:50.000 : en:Swimsuit shopping
00:50:07.000 : en:Dropping his friends
00:52:31.000 : en:A happy faculty
00:55:55.000 : en:Ed Ligget
00:58:48.000 : en:"Let It Whip"
01:02:29.000 : en:Riding the bull
01:05:59.000 : en:Dizzy William Wallace
01:07:55.000 : en:Highlanders vs. Drillers
01:11:29.000 : en:A very sore loser
01:13:37.000 : en:Suburban Funk
01:16:02.000 : en:The same guy
01:18:54.000 : en:Something in common
01:21:46.000 : en:Outtakes & Credits
Скріншоти
Джерело: &
Над доріжками працювали: п. Sando7, п. Bohdan237, п. bodia87, п. Arsenfpu
Особиста оцінка: 8 - мені сподобалося


Срібний реліз (на рейтинг впливає 50% завантаженого)
 Трекер:    Зареєстрований   

Завантажити / скачати фільм українською



відео для новачків



 Зареєстрований:   2019-09-02 22:15
 Розмір:   8.6 GB 
 Оцінка фільму:   10/10 (Голосів: 6)
   
Інші релізи
   Крутий хлопець / The New Guy (2002) AVC 3xUkr/Eng | Sub Eng Sando7  4 / 0   1.46 GB   2019-09-01 09:12 
   Крутий хлопець / The New Guy (2002) 2xUkr Arsenfpu  2 / 0   1.42 GB   2018-05-13 16:58 
   Крутий хлопець / The New Guy (2002) Ukr/Eng ilu  2 / 0   1.45 GB   2013-09-20 12:42 
Ваш часовий пояс: GMT + 2 Години

Нова тема   Відповісти