Дівчата з Еквестрії. Канікули як вони є / My Little Pony: Equestria Girls - Holidays Unwrapped (2019) AVC

Нові коментарі

Нова тема   Відповісти
Автор Повідомлення
sergiyko.5 
Забанено
Забанено


З нами з: 25.02.16
Востаннє: 29.10.20
Повідомлень: 3651

2019-09-02 16:45  
Дівчата з Еквестрії. Канікули як вони є / My Little Pony: Equestria Girls - Holidays Unwrapped (2019) AVC

Дівчата з Еквестрії. Канікули як вони є / My Little Pony: Equestria Girls - Holidays Unwrapped (2019) AVC

Жанр: фентезі, пригоди, комедія, сімейний
Країна: США, Ірландія
Кінокомпанія: Hasbro Studios, DHX, Allspark Animation
Режисер: Іші Руделл, Катріна Хедлі

Сюжет:
Дівчата з Еквестрії Канікули як вони є - спецвипуск серії мультфільмів Дівчата з Еквестрії.




Тривалість: 00:42:15
Якість:

Відео: кодек: розмір кадру: 1024 х 576 бітрейт: 1100 кб/с частота: 25.000 кд/с
Аудіо: мова: українська переклад: професійний дубльований кодек: 2.0ch бітрейт: 192 кб/с [ Stereo ]
Озвучення:

Примітка: українська доріжка записана з супутникової трансляції і синхронізована під відео, звук не розтягувався і не змінювався темп.
Про файл:
General
Unique ID : 184348533963991628348528674076957861619 (0x8AB03C76106338E2610FFEB18277E6F3)
Complete name : D:\Documents\Torrents\MULTSER\Equestria Girls. Holidays Unwrapped.2019..
Format :
Format version : Version 4
File size : 391 MiB
Duration : 42 min 15 s
Overall bit rate : 1 295 kb/s
Movie name : Equestria Girls. Holidays Unwrapped 2019 by sergiyko
Encoded date : UTC 2019-09-02 15:35:56
Writing application : v36.0.0 ('Is That Jazz?') 64-bit
Writing library : libebml v1.3.9 + v1.5.2

Video
ID : 1
Format : AVC
Format/Info : Advanced Video Codec
Format profile : [email protected]
Format settings : CABAC / 7 Ref Frames
Format settings, CABAC : Yes
Format settings, Reference fra : 7 frames
Codec ID : V_MPEG4/ISO/AVC
Duration : 42 min 15 s
Bit rate : 1 101 kb/s
Width : 1 024 pixels
Height : 576 pixels
Display aspect ratio : 16:9
Frame rate mode : Constant
Frame rate : 25.000 FPS
Color space : YUV
Chroma subsampling : 4:2:0
Bit depth : 8 bits
Scan type : Progressive
Bits/(Pixel*Frame) : 0.075
Stream size : 333 MiB (85%)
Title : Equestria Girls. Holidays Unwrapped 2019
Writing library : core 146 r2538 121396c
Encoding settings : cabac=1 / ref=7 / deblock=1:-1:-1 / analyse=0x3:0x133 / me=umh / subme=10 / psy=1 / psy_rd=0.40:0.00 / mixed_ref=1 / me_range=32 / chroma_me=1 / trellis=2 / 8x8dct=1 / cqm=0 / deadzone=21,11 / fast_pskip=1 / chroma_qp_offset=-2 / threads=24 / lookahead_threads=4 / sliced_threads=0 / nr=0 / decimate=1 / interlaced=0 / bluray_compat=0 / constrained_intra=0 / bframes=10 / b_pyramid=2 / b_adapt=2 / b_bias=0 / direct=3 / weightb=1 / open_gop=0 / weightp=2 / keyint=250 / keyint_min=25 / scenecut=40 / intra_refresh=0 / rc_lookahead=60 / rc=crf / mbtree=1 / crf=18.0 / qcomp=0.70 / qpmin=0 / qpmax=69 / qpstep=4 / ip_ratio=1.40 / aq=1:0.60
Language : English
Default : Yes
Forced : No

Audio
ID : 2
Format : AC-3
Format/Info : Audio Coding 3
Commercial name : Dolby Digital
Codec ID : A_AC3
Duration : 42 min 15 s
Bit rate mode : Constant
Bit rate : 192 kb/s
Channel(s) : 2 channels
Channel layout : L R
Sampling rate : 48.0 kHz
Frame rate : 31.250 FPS (1536 SPF)
Bit depth : 16 bits
Compression mode : Lossy
Stream size : 58.0 MiB (15%)
Title : DUB 2ch | ПлюсПлюс
Language : Ukrainian
Service kind : Complete Main
Default : Yes
Forced : No
Скріншоти:


Автор запису/зведення: sergiyko


Бронзовий реліз (на рейтинг впливає 75% завантаженого)
 Трекер:    Зареєстрований   

Завантажити / скачати мультфільм українською



відео для новачків



 Зареєстрований:   2019-09-02 17:38
 Розмір:   391 MB 
 Оцінка мультфільму:   8.3/10 (Голосів: 3)
   
bot 
робот


З нами з: 30.09.07
Востаннє: 26.05.05
Повідомлень: 26026

2019-09-02 16:45  
Тему перенесено з Мультфільми до форуму Анонси релізів


sergiyko.5

bot 
робот


З нами з: 30.09.07
Востаннє: 26.05.05
Повідомлень: 26026

2019-09-02 17:38  
Тему перенесено з Анонси релізів до форуму Мультфільми


sergiyko.5

Ваш часовий пояс: GMT + 2 Години

Нова тема   Відповісти