Дівчата з Еквестрії. Канікули як вони є / My Little Pony: Equestria Girls - Holidays Unwrapped (2019) 1080p

Нові коментарі

Нова тема   Відповісти
Автор Повідомлення
sergiyko.5 
Забанено
Забанено


З нами з: 25.02.16
Востаннє: 29.10.20
Повідомлень: 3648

2019-09-02 16:42  
Дівчата з Еквестрії. Канікули як вони є / My Little Pony: Equestria Girls - Holidays Unwrapped (2019) 1080p

Дівчата з Еквестрії. Канікули як вони є / My Little Pony: Equestria Girls - Holidays Unwrapped (2019) 1080p

Жанр: фентезі, пригоди, комедія, сімейний
Країна: США, Ірландія
Кінокомпанія: Hasbro Studios, DHX, Allspark Animation
Режисер: Іші Руделл, Катріна Хедлі

Сюжет:
Дівчата з Еквестрії Канікули як вони є - спецвипуск серії мультфільмів Дівчата з Еквестрії.




Тривалість: 00:42:15
Якість:

Відео: кодек: розмір кадру: 1920 х 1080 бітрейт: 10000 кб/с частота: 25.000 кд/с
Аудіо: мова: українська переклад: професійний дубльований кодек: 2.0ch бітрейт: 192 кб/с [ Stereo ]
Озвучення:

Примітка: українська доріжка записана з супутникової трансляції і синхронізована під HD відео, звук не розтягувався і не змінювався темп.
Про файл:
General
Unique ID : 5513240452930085132403436872776507562 (0x425CFBDAB9ED6ED8465ABCA7FD360AA)
Complete name : D:\Documents\Torrents\MULTSER\Equestria Girls. Holidays Unwrapped.2018.1080p..
Format :
Format version : Version 4
File size : 3.02 GiB
Duration : 42 min 15 s
Overall bit rate : 10.2 Mb/s
Movie name : Equestria Girls: Holidays Unwrapped by sergiyko
Encoded date : UTC 2019-09-02 15:05:18
Writing application : v36.0.0 ('Is That Jazz?') 64-bit
Writing library : libebml v1.3.9 + v1.5.2

Video
ID : 1
Format : AVC
Format/Info : Advanced Video Codec
Format profile : [email protected]
Format settings : CABAC / 6 Ref Frames
Format settings, CABAC : Yes
Format settings, Reference : 6 frames
Format settings, GOP : M=2, N=15
Codec ID : V_MPEG4/ISO/AVC
Duration : 42 min 15 s
Bit rate : 10.0 Mb/s
Width : 1 920 pixels
Height : 1 080 pixels
Display aspect ratio : 16:9
Frame rate mode : Constant
Frame rate : 25.000 FPS
Color space : YUV
Chroma subsampling : 4:2:0
Bit depth : 8 bits
Scan type : Progressive
Bits/(Pixel*Frame) : 0.193
Stream size : 2.96 GiB (98%)
Language : English
Default : Yes
Forced : No

Audio
ID : 2
Format : AC-3
Format/Info : Audio Coding 3
Commercial name : Dolby Digital
Codec ID : A_AC3
Duration : 42 min 15 s
Bit rate mode : Constant
Bit rate : 192 kb/s
Channel(s) : 2 channels
Channel layout : L R
Sampling rate : 48.0 kHz
Frame rate : 31.250 FPS (1536 SPF)
Bit depth : 16 bits
Compression mode : Lossy
Delay relative to video : -200 ms
Stream size : 58.0 MiB (2%)
Title : DUB 2ch | ПлюсПлюс
Language : Ukrainian
Service kind : Complete Main
Default : Yes
Forced : No
Скріншоти:


Автор запису/зведення: sergiyko


Бронзовий реліз (на рейтинг впливає 75% завантаженого)
 Трекер:    Зареєстрований   

Завантажити / скачати мультфільм українською



відео для новачків



 Зареєстрований:   2019-09-02 17:19
 Розмір:   3.02 GB 
 Оцінка мультфільму:   9.9/10 (Голосів: 8)
   
bot 
робот


З нами з: 30.09.07
Востаннє: 26.05.05
Повідомлень: 27369

2019-09-02 16:42  
Тему перенесено з Мультфільми в HD до форуму Анонси релізів


sergiyko.5

bot 
робот


З нами з: 30.09.07
Востаннє: 26.05.05
Повідомлень: 27369

2019-09-02 17:08  
Тему перенесено з Анонси релізів до форуму Мультфільми в HD


sergiyko.5

ZETMAN 
Свій


З нами з: 09.03.13
Востаннє: 09.03.21
Повідомлень: 77

2019-09-02 19:16  
Оперативно реліз зробив. А от якби я не написав про це, довше мабуть чекали.
UnitedWallabies 
Частий відвідувач


З нами з: 16.12.12
Востаннє: 16.12.20
Повідомлень: 37

2020-04-18 18:10  
Нащо ж видаляти звук оригіналу, панове? Чи він так багато місця потребує?
sergiyko.5 
Забанено
Забанено


З нами з: 25.02.16
Востаннє: 29.10.20
Повідомлень: 3648

2020-04-18 19:39  
UnitedWallabies
А у нас канал ПлюсПлюс транслює з двома доріжками, українською і оригінальною?! Ви логотип каналу на відео не бачили?

Ваш часовий пояс: GMT + 2 Години

Нова тема   Відповісти