Закон Майло Мерфі / Milo Murphy's Law (Сезон 2) (2018) 1080p Ukr/Eng | sub Eng

Нові коментарі

Нова тема   Відповісти
Останній раз роздавалося helenka13 (2021-04-14)
Автор Повідомлення
sergiyko.5 
Забанено
Забанено


З нами з: 25.02.16
Востаннє: 29.10.20
Повідомлень: 3648

2019-09-02 10:57  


Закон Майло Мерфі / Milo Murphy's Law (Сезон 2) (2018) 1080p Ukr/Eng | sub Eng


Закон Майло Мерфі / Milo Murphy's Law (Сезон 2) (2018) 1080p Ukr/Eng | sub Eng

Жанр: пригоди, комедія
Країна: США
Режисер: Ден Повенмайер, Роберт Еф. Хьюз, Боб Боуен

Сюжет:
Майло Мерфі - це уособлення закону Мерфі: все, що має піти не так, піде не так. Та він готовий до будь-якої халепи, адже хлопцеві в нагоді завжди стають знання, повний рюкзак необхідних матеріалів, оптимізм та натхнення. Тож, Майло здатен будь-яку катастрофу перетворити на пригоду. У цьому йому допомагають друзі Мелісса і Зак. Дивіться надзвичайні пригоди Майло - від зустрічі з інопланетянами до подорожі до центру Землі. І з ними завжди закон Майло Мерфі.




Тривалість: 1 серія: 23:36 (цілком серій: 20 з 20)
Якість:

Відео: кодек: розмір кадру: 1920 х 1080 бітрейт: 5100 кб/с
Аудіо 1: мова: українська переклад: професійний дубльований кодек: 2.0ch бітрейт: 192 кб/с [ Stereo ]
Озвучення:
Аудіо 2: мова: англійська переклад: оригінал кодек: 2.0 бітрейт: 128 кб/с
Субтитри: мова: англійська тип: програмні (м’які) формат: *.srt

Примітка: українська доріжка записана з супутникової трансляції телеканала ПлюсПлюс і синхронізована під HD відео.
Перелік серій:
01 The Phineas and Ferb Effect
02 Snow Way Out-Teacher Feature
03 Picture Day-Agee Ientee Diogee
04 Game Night-Pace Makes Waste
05 Cake Splosion-Lady Krillers
06.Doof's Day Out-Disco Do-Over
07.The Ticking Clock-Managing Murphy's Law
08.Milo's Shadow-Sick Day
09.Field of Screams-Spy Little Sister
10.Dog Walker, Runner, Screamer-Now I Am a Murphy
11.Freefall-Milo's World
12.Abducting Murphy's Law
13.The Goulash Legacy-The Dog Who Knew Too Much
14.Adventure Buddies-Ride Along Little Doggie
15.Look at this Ship-Cast Party
16.Safety First-Cavendish Unleashed
17.First Impressions-The Speech and Debate League of Death and Destruction Cross Town Explosion Event
18.The Mid-Afternoon Snack Club-Parks and Wreck
19.Escape-Milo in Space
20.Sphere and Loathing in Outer Space
Про файл:
General
Unique ID : 297138057222132507504474051653280189408 (0xDF8AB54CBBDC280A17D7797D76B3CBE0)
Complete name : D:\Documents\Torrents\MULTSER\Milo Murphys Law S02 1080p \S02E02.Snow Way Out-Teacher Feature.1080p..
Format :
Format version : Version 4
File size : 855 MiB
Duration : 22 min 1 s
Overall bit rate : 5 425 kb/s
Movie name : Milo Murphys Law S02 1080p by sergiyko
Encoded date : UTC 2019-09-01 11:09:39
Writing application : v36.0.0 ('Is That Jazz?') 64-bit
Writing library : libebml v1.3.9 + v1.5.2

Video
ID : 1
Format : AVC
Format/Info : Advanced Video Codec
Format profile : [email protected]
Format settings : CABAC / 4 Ref Frames
Format settings, CABAC : Yes
Format settings, Reference : 4 frames
Codec ID : V_MPEG4/ISO/AVC
Duration : 22 min 1 s
Bit rate : 5 106 kb/s
Width : 1 920 pixels
Height : 1 080 pixels
Display aspect ratio : 16:9
Frame rate mode : Constant
Frame rate : 23.976 (24000/1001) FPS
Color space : YUV
Chroma subsampling : 4:2:0
Bit depth : 8 bits
Scan type : Progressive
Bits/(Pixel*Frame) : 0.103
Stream size : 804 MiB (94%)
Title : S02E02.Snow Way Out-Teacher Feature
Language : English
Default : Yes
Forced : No
Color range : Limited
Color primaries : BT.709
Transfer characteristics : BT.709
Matrix coefficients : BT.709

Audio #1
ID : 2
Format : AC-3
Format/Info : Audio Coding 3
Commercial name : Dolby Digital
Codec ID : A_AC3
Duration : 22 min 1 s
Bit rate mode : Constant
Bit rate : 192 kb/s
Channel(s) : 2 channels
Channel layout : L R
Sampling rate : 48.0 kHz
Frame rate : 31.250 FPS (1536 SPF)
Bit depth : 16 bits
Compression mode : Lossy
Delay relative to video : -42 ms
Stream size : 30.2 MiB (4%)
Title : DUB | ПлюсПлюс
Language : Ukrainian
Service kind : Complete Main
Default : Yes
Forced : Yes

Audio #2
ID : 3
Format : LC
Format/Info : Advanced Audio Codec Low Complexity
Codec ID : A_AAC-2
Duration : 22 min 1 s
Bit rate : 125 kb/s
Channel(s) : 2 channels
Channel layout : L R
Sampling rate : 48.0 kHz
Frame rate : 46.875 FPS (1024 SPF)
Compression mode : Lossy
Delay relative to video : -42 ms
Stream size : 19.7 MiB (2%)
Title : Original
Language : English
Default : No
Forced : No

Text
ID : 4
Format : UTF-8
Codec ID : S_TEXT/UTF8
Codec ID/Info : UTF-8 Plain Text
Duration : 21 min 55 s
Bit rate : 134 b/s
Count of elements : 543
Stream size : 21.6 KiB (0%)
Language : English
Default : No
Forced : No
Скріншоти:


Запис/зведення: sergiyko


Бронзовий реліз (на рейтинг впливає 75% завантаженого)
 Трекер:    Зареєстрований   

Завантажити / скачати мультфільм українською



відео для новачків



 Зареєстрований:   2019-10-03 17:22
 Розмір:   17.59 GB 
 Оцінка мультсеріалу:   9.9/10 (Голосів: 9)
   
sergiyko.5 
Забанено
Забанено


З нами з: 25.02.16
Востаннє: 29.10.20
Повідомлень: 3648

2019-09-18 15:49  
Додав 6-16 серії. Оновлена серія 1 до повної версії. Звук до всього сезону записаний, чекаю на якісне відео, яке пишеться нашими друзями з Бразилії.
sergiyko.5 
Забанено
Забанено


З нами з: 25.02.16
Востаннє: 29.10.20
Повідомлень: 3648

2019-10-03 17:22  
Додав 17-20 серію. Сезон повний. Приємного перегляду!
Ваш часовий пояс: GMT + 2 Години

Нова тема   Відповісти