[Збір коштів] Втеча з в'язниці / Prison Break (Сезон 5, Серія 1-4) (2017) 720p

Нові коментарі

Нова тема   Відповісти
Останній раз роздавалося Maters (2020-12-01)
Автор Повідомлення
Arch Enemy 
VIP


З нами з: 30.08.12
Востаннє: 30.11.20
Повідомлень: 1925

2019-09-01 21:45  
Втеча з в'язниці / Prison Break (Сезон 5, Серія 1-4) (2017) 720p



[Збір коштів] Втеча з в'язниці / Prison Break (Сезон 5, Серія 1-4) (2017) 720p

Жанр: драма, бойовик, детектив, трилер
Країна: США



Кінокомпанія: 20th Century Fox, Original Film, Prison Break Productions
Режисер: Пол Шерінг
Актори: Вентворт Міллер, Домінік Перселл, Роберт Неппер, Амаурі Ноласько, Вейд Вілліамс, Вілліам Фіхтнер, Роберт Віздом, Деней Гарсіа, Кріс Венс, Джоді Лін О’кіф та інші.

Сюжет:
Дія розгортається через сім років після подій, якими закінчився оригінальний серіал. Увесь цей час Майкла Скофілда вважали загиблим. Однак в руки Ті-Бега потрапляє знімок, який доводить, що Майкл був живий. Ті-Бег повідомляє про це Лінкольна. А Лінк об’єднується зі старими друзями, щоб знайти брата. Пошуки приводять їх до в’язниці Ємену. Герої вирішують витягти Майкла з-за ґрат, як і він сам робив уже не раз.

Тривалість: 1 серія: ~45 хв., всього серій: 9
Перелік серій
01. "Ogygia"
02. "Kaniel Outis"
03. "The Liar"
04. "The Prisoner's Dilemma"
05. "Contingency"
06. "Phaecia"
07. "Wine Dark Sea"
08. "Progeny"
09. "Behind the Eyes"
Відео:
якість: 720p
контейнер:
кодек:
розмір кадру: 1280х718 пікс.
бітрейт: ~4000 кбіт/сек.

Аудіо:
мова: українська,
озвучення: багатоголосе закадрове
кодек: 2.0
бітрейт: 256 кбіт/сек.

Джерело перекладу та озвучення: AniUA
Info
General
Unique ID : 312927582835660803397308650325620943384 (0xEB6BA9043AD4365A6DC1F6A92C65EA18)
Complete name : D:\Films\Prison Break (Season 5)\Prison.Break.S05E01..720p.
Format :
Format version : Version 4
File size : 1.28 GiB
Duration : 43 min 2 s
Overall bit rate : 4 270 kb/s
Encoded date : UTC 2019-09-01 19:13:24
Writing application : v26.0.0 ('In The Game') 64-bit
Writing library : libebml v1.3.6 + v1.4.9

Video
ID : 1
Format : AVC
Format/Info : Advanced Video Codec
Format profile : [email protected]
Format settings : 2 Ref Frames
Format settings, CABAC : No
Format settings, Reference : 2 frames
Codec ID : V_MPEG4/ISO/AVC
Duration : 43 min 0 s
Bit rate : 4 015 kb/s
Width : 1 280 pixels
Height : 718 pixels
Display aspect ratio : 16:9
Frame rate mode : Constant
Frame rate : 23.976 (24000/1001) FPS
Color space : YUV
Chroma subsampling : 4:2:0
Bit depth : 8 bits
Scan type : Progressive
Bits/(Pixel*Frame) : 0.182
Stream size : 1.21 GiB (94%)
Title : Episode 01
Language : English
Default : Yes
Forced : Yes
Color range : Limited
Color primaries : BT.709
Transfer characteristics : BT.709
Matrix coefficients : BT.709

Audio
ID : 2
Format : LC
Format/Info : Advanced Audio Codec Low Complexity
Codec ID : A_AAC-2
Duration : 43 min 2 s
Bit rate : 256 kb/s
Channel(s) : 2 channels
Channel layout : L R
Sampling rate : 48.0 kHz
Frame rate : 46.875 FPS (1024 SPF)
Compression mode : Lossy
Stream size : 78.8 MiB (6%)
Title : AniUA MVO
Language : Ukrainian
Default : Yes
Forced : Yes
Скріншоти







Загалом на озвучення всього серіалу потрібно 15 300 грн. (1 серія/1700 грн.)
Станом на 20.03.2020 зібрано: 6800 грн.
На озвучення 5 серії зібрано: 0 грн. з 1700 грн.


!!! Увага !!!
Для тих, хто забуває або з якихось причин не може вказати на що мають піти перераховані кошти - відписуйте мені приватне повідомлення на що, від кого, скільки і з якого рахунку (кілька останніх цифр достатньо).



Авторський реліз (завантажувати можна без реєстрації)
 Трекер:    Зареєстрований   

Завантажити / скачати серіал українською



відео для новачків



 Зареєстрований:   2020-03-20 21:15
 Розмір:   5.24 GB 
 Оцінка серіалу:   9.3/10 (Голосів: 9)
   
Arch Enemy 
VIP


З нами з: 30.08.12
Востаннє: 30.11.20
Повідомлень: 1925

2019-09-01 22:00  
Подяка Соломону Кейну за фінансування першої серії.
Arch Enemy 
VIP


З нами з: 30.08.12
Востаннє: 30.11.20
Повідомлень: 1925

2019-09-12 18:36  
Реліз оновлено - додано 2 серію

casper101 
VIP


З нами з: 03.12.09
Востаннє: 01.12.20
Повідомлень: 451

2019-09-12 19:28  
круто!!!
The Gunslinger 
Свій


З нами з: 08.04.12
Востаннє: 30.11.20
Повідомлень: 103

2019-09-12 21:33  
Я колись дивився цей сезон, на мою думку він дуже слабкий. "Втеча з в'язниці" зіпсувалася після першого сезону.
Arch Enemy 
VIP


З нами з: 30.08.12
Востаннє: 30.11.20
Повідомлень: 1925

2019-11-19 13:58  
Реліз оновлено - додано 3 серію

Sexy_Beast 
Частий відвідувач


З нами з: 18.02.17
Востаннє: 28.11.20
Повідомлень: 47

2019-11-19 17:45  
Перший сезон був крутий... А далі, с кожним сезоном все гірше і гірше....
Arch Enemy 
VIP


З нами з: 30.08.12
Востаннє: 30.11.20
Повідомлень: 1925

2020-01-06 00:01  
Станом на 05.01.2020 зібрано: 5660 грн.
На озвучення 4 серії зібрано: 560 грн. з 1700 грн.

Arch Enemy 
VIP


З нами з: 30.08.12
Востаннє: 30.11.20
Повідомлень: 1925

2020-03-20 21:15  
Реліз оновлено - додано 4 серію

Ваш часовий пояс: GMT + 2 Години

Нова тема   Відповісти