Формула 1. Сезон 2019. Етап 13. Гран-Прі Бельгії. Гонка (01.09.2019) 1080p 2xUkr,Eng

Нові коментарі

Нова тема   Відповісти
Автор Повідомлення
sergiyko.5 
VIP


З нами з: 25.02.16
Востаннє: 30.03.20
Повідомлень: 3014

2019-09-01 19:14  
Формула 1. Сезон 2019. Етап 13. Гран-Прі Бельгії. Гонка (01.09.2019) 1080p 2xUkr,Eng


Формула 1. Сезон 2019. Етап 13. Гран-Прі Бельгії. Гонка (01.09.2019) 1080p 2xUkr,Eng

Жанр: Перегони Формули 1
Країна: Бельгія
Телеканал: F1 TV
Коментатор: Роман Гончаров (1), Максим Подзігун (2)

Опис:
Гонка тринадцятого етапу Гран-Прі Бельгії 2019 року.


Тривалість: 01:50:32
Якість:

Відео: кодек: розмір кадру: 1920 х 1080 бітрейт: 5500 кб/с
Аудіо 1: мова: українська кодек: 2.0 бітрейт: 192 кб/с
Аудіо 2: мова: українська кодек: 2.0 бітрейт: 192 кб/с
Аудіо 3: мова: англійська кодек: 2.0 бітрейт: 128 кб/с
Про файл:
General
Unique ID : 115378261626417380968331701494350446937 (0x56CD0B7E8D136A939B100E91A6D98159)
Complete name : D:\Documents\Torrents\SPORT\F1.2019.13.Belgian.Race..1080p.Ukr.Eng.
Format :
Format version : Version 4
File size : 4.65 GiB
Duration : 1 h 50 min
Overall bit rate : 6 018 kb/s
Movie name : by sergiyko
Encoded date : UTC 2019-09-01 20:08:30
Writing application : v36.0.0 ('Is That Jazz?') 64-bit
Writing library : libebml v1.3.9 + v1.5.2

Video
ID : 1
Format : AVC
Format/Info : Advanced Video Codec
Format profile : [email protected]
Format settings : CABAC / 4 Ref Frames
Format settings, CABAC : Yes
Format settings, Reference : 4 frames
Format settings, GOP : M=4, N=50
Codec ID : V_MPEG4/ISO/AVC
Duration : 1 h 50 min
Bit rate mode : Constant
Bit rate : 5 500 kb/s
Width : 1 920 pixels
Height : 1 080 pixels
Display aspect ratio : 16:9
Frame rate mode : Constant
Frame rate : 25.000 FPS
Color space : YUV
Chroma subsampling : 4:2:0
Bit depth : 8 bits
Scan type : Progressive
Bits/(Pixel*Frame) : 0.106
Stream size : 4.25 GiB (91%)
Language : English
Default : Yes
Forced : No

Audio #1
ID : 2
Format : AC-3
Format/Info : Audio Coding 3
Commercial name : Dolby Digital
Codec ID : A_AC3
Duration : 1 h 50 min
Bit rate mode : Constant
Bit rate : 192 kb/s
Channel(s) : 2 channels
Channel layout : L R
Sampling rate : 48.0 kHz
Frame rate : 31.250 FPS (1536 SPF)
Bit depth : 16 bits
Compression mode : Lossy
Delay relative to video : -23 ms
Stream size : 152 MiB (3%)
Title : Роман Гончаров
Language : Ukrainian
Service kind : Complete Main
Default : Yes
Forced : No

Audio #2
ID : 3
Format : AC-3
Format/Info : Audio Coding 3
Commercial name : Dolby Digital
Codec ID : A_AC3
Duration : 1 h 50 min
Bit rate mode : Constant
Bit rate : 192 kb/s
Channel(s) : 2 channels
Channel layout : L R
Sampling rate : 48.0 kHz
Frame rate : 31.250 FPS (1536 SPF)
Bit depth : 16 bits
Compression mode : Lossy
Delay relative to video : -23 ms
Stream size : 152 MiB (3%)
Title : Максим Подзігун
Language : Ukrainian
Service kind : Complete Main
Default : No
Forced : No

Audio #3
ID : 4
Format : LC
Format/Info : Advanced Audio Codec Low Complexity
Codec ID : A_AAC-2
Duration : 1 h 50 min
Bit rate : 132 kb/s
Channel(s) : 2 channels
Channel layout : L R
Sampling rate : 44.1 kHz
Frame rate : 43.066 FPS (1024 SPF)
Compression mode : Lossy
Delay relative to video : -23 ms
Stream size : 104 MiB (2%)
Language : English
Default : No
Forced : No
Скріншоти:


Запис/зведення: sergiyko


Золотий реліз (завантажене не впливає на рейтинг)
 Трекер:    Зареєстрований   

Завантажити / скачати торрент



відео для новачків



 Зареєстрований:   2019-09-01 23:13
 Розмір:   4.65 GB 
 Оцінка:   10/10 (Голосів: 21)
   
sergiyko.5 
VIP


З нами з: 25.02.16
Востаннє: 30.03.20
Повідомлень: 3014

2019-09-01 23:14  
Торент оновлено. Додав коментар Гончарова та відео кращої якості.
Dron1994 
Новенький


З нами з: 07.07.14
Востаннє: 30.03.20
Повідомлень: 15

2020-03-21 14:57  
Дуже дякую за чудовий та компактний реліз. Як на мене - Подзігун краще коментує ф1, от хоч убийте) Хоча тут на колір і смак усі фломастери різні.
Ваш часовий пояс: GMT + 2 Години

Нова тема   Відповісти