Бокс | Василь Ломаченко - Люк Кемпбелл | Vasyl Lomachenko vs. Luke Campbell (31.08.2019) HDTV 720p Ukr,Eng

Нові коментарі

Нова тема   Відповісти
Автор Повідомлення
sergiyko.5 
VIP


З нами з: 25.02.16
Востаннє: 26.01.20
Повідомлень: 2876

2019-09-01 01:32  
Бокс | Василь Ломаченко - Люк Кемпбелл | Vasyl Lomachenko vs. Luke Campbell (31.08.2019) HDTV 720p Ukr,Eng

Бокс | Василь Ломаченко - Люк Кемпбелл | Vasyl Lomachenko vs. Luke Campbell (31.08.2019) HDTV 720p Ukr,Eng

Жанр: бокс
Країна: Велика Британія
Телеканал: Sky Sports

Опис:
Ввечері, 31 серпня, Василь Ломаченко або буде в кроці від своєї мрії, або доведеться все починати спочатку. У легкій вазі українець має намір стати абсолютним чемпіоном. Для цього потрібно виграти чотири пояси. Половина шляху пройдена. У Ломаченко вже є титули WBA і WBO. У разі перемоги над Люком Кемпбеллом додасться третій – WBC.


Якість: HDTV

Відео: кодек: розмір кадру: 1280 x 720 бітрейт: 3200 кб/с 50,000 fps
Аудіо 1: мова: українська кодек: MP2 2.0ch бітрейт: 192 кб/с
Аудіо 2: мова: англійська кодек: MP2 2.0ch бітрейт: 192 кб/с
Тривалість:
01:14:10
Про файл:
General
Unique ID : 251776297810165454102553990896287442090 (0xBD6A59E342722E431BCBE9E98C9B64AA)
Complete name : D:\Documents\Torrents\SPORT\Boxing.2019.08.31.Vasyl.Lomachenko.vs.Luke.Campbell.720p.HDTV.
Format :
Format version : Version 4
File size : 1.89 GiB
Duration : 1 h 14 min
Overall bit rate : 3 644 kb/s
Movie name : Boxing 2019-08-31 Vasyl Lomachenko vs Luke Campbell
Encoded date : UTC 2019-09-01 09:49:25
Writing application : v36.0.0 ('Is That Jazz?') 64-bit
Writing library : libebml v1.3.9 + v1.5.2

Video
ID : 1
Format : AVC
Format/Info : Advanced Video Codec
Format profile : [email protected]
Format settings : CABAC / 5 Ref Frames
Format settings, CABAC : Yes
Format settings, Reference : 5 frames
Codec ID : V_MPEG4/ISO/AVC
Duration : 1 h 14 min
Bit rate : 3 256 kb/s
Width : 1 280 pixels
Height : 720 pixels
Display aspect ratio : 16:9
Frame rate mode : Constant
Frame rate : 50.000 FPS
Color space : YUV
Chroma subsampling : 4:2:0
Bit depth : 8 bits
Scan type : Progressive
Bits/(Pixel*Frame) : 0.071
Stream size : 1.69 GiB (89%)
Writing library : core 158 r2984 3759fcb
Encoding settings : cabac=1 / ref=5 / deblock=1:0:0 / analyse=0x3:0x113 / me=hex / subme=8 / psy=1 / psy_rd=1.00:0.00 / mixed_ref=1 / me_range=16 / chroma_me=1 / trellis=2 / 8x8dct=1 / cqm=0 / deadzone=21,11 / fast_pskip=1 / chroma_qp_offset=-2 / threads=12 / lookahead_threads=2 / sliced_threads=0 / nr=0 / decimate=1 / interlaced=0 / bluray_compat=0 / constrained_intra=0 / bframes=3 / b_pyramid=2 / b_adapt=1 / b_bias=0 / direct=3 / weightb=1 / open_gop=0 / weightp=2 / keyint=250 / keyint_min=25 / scenecut=40 / intra_refresh=0 / rc_lookahead=50 / rc=crf / mbtree=1 / crf=23.0 / qcomp=0.60 / qpmin=0 / qpmax=69 / qpstep=4 / ip_ratio=1.40 / aq=1:1.00
Language : English
Default : Yes
Forced : No
Color range : Limited
Matrix coefficients : BT.709

Audio #1
ID : 2
Format : MPEG Audio
Format version : Version 1
Format profile : Layer 2
Codec ID : A_MPEG/L2
Codec ID/Hint : MP2
Duration : 1 h 14 min
Bit rate mode : Constant
Bit rate : 192 kb/s
Channel(s) : 2 channels
Sampling rate : 48.0 kHz
Frame rate : 41.667 FPS (1152 SPF)
Compression mode : Lossy
Stream size : 102 MiB (5%)
Language : Ukrainian
Default : Yes
Forced : Yes

Audio #2
ID : 3
Format : MPEG Audio
Format version : Version 1
Format profile : Layer 2
Codec ID : A_MPEG/L2
Codec ID/Hint : MP2
Duration : 1 h 14 min
Bit rate mode : Constant
Bit rate : 192 kb/s
Channel(s) : 2 channels
Sampling rate : 48.0 kHz
Frame rate : 41.667 FPS (1152 SPF)
Compression mode : Lossy
Stream size : 102 MiB (5%)
Language : English
Default : No
Forced : No
Скріншоти:


Запис/зведення: sergiyko


Золотий реліз (завантажене не впливає на рейтинг)
 Трекер:    Зареєстрований   

Завантажити / скачати торрент



відео для новачків



 Зареєстрований:   2019-09-01 11:58
 Розмір:   1.89 GB 
 Оцінка:   7.1/10 (Голосів: 16)
   
antik_2008 
Релізер і модератор відео


З нами з: 20.10.08
Востаннє: 26.01.20
Повідомлень: 2986

2019-09-01 01:56  
sergiyko.5
Тільки бій вже був 01.09.2019 Happy

А так дякую за реліз .

sergiyko.5 
VIP


З нами з: 25.02.16
Востаннє: 26.01.20
Повідомлень: 2876

2019-09-01 11:58  
Торент оновлено. Замінено відео кращої якості.
munipet 
Попереджень: 1
Попереджень: 1 


З нами з: 14.04.11
Востаннє: 26.01.20
Повідомлень: 289

2019-09-01 12:48  
Я 65 кг і набагато худіше вигляжу ,що це за здоровило ломаченку підкинули ?
boho 
Новенький


З нами з: 13.07.18
Востаннє: 22.01.20
Повідомлень: 6

2019-09-03 20:19  
Вася навіть не напружив сідниці,одразу видно його рівень.Правду Белью казав,що він: (пришелец).
)

TrillPhonk 
Новенький


З нами з: 07.05.19
Востаннє: 20.01.20
Повідомлень: 1

2019-09-09 16:57  
munipet
Офіційне зважування відбувається за 24 години до бою за цей час боксери встигають набрати до 10 кг.

pravdorub 
Свій


З нами з: 24.12.17
Востаннє: 24.01.20
Повідомлень: 96

2020-01-09 15:14  
Нацюцюрник Василько показав своє гниле ватне нутро - запостив в себе в інсті русмірсько-православний мотиваційний відосик з рашистським спецназом


sergiyko.5 
VIP


З нами з: 25.02.16
Востаннє: 26.01.20
Повідомлень: 2876

2020-01-09 15:37  
Допоки всі совєтьсткі люди не помруть і їх діти, годі чекати на нормальне суспільство. Але треба наполегливо працювати, щоб наступні покоління любили Україну.
Ваш часовий пояс: GMT + 2 Години

Нова тема   Відповісти