Аладдін / Aladdin (2019) Remux 1080p Ukr/Eng | Sub Eng

Нові коментарі

Нова тема   Відповісти
Автор Повідомлення
Anonymous 







2019-09-01 00:01  
Аладдін / Aladdin (2019) Remux 1080p Ukr/Eng | Sub Eng

Аладдін / Aladdin (2019) Remux 1080p Ukr/Eng | Sub Eng
Постер
Аладдін / Aladdin (2019) Remux 1080p Ukr/Eng | Sub Eng
Жанр: комедія, мюзикл, пригодницький, романтика, сімейний, фентезі
Країна: США



Кінокомпанія: Walt Disney Pictures
Режисер: Ґай Річі
Актори: Мена Массуд, Наомі Скотт, Уілл Сміт, Біллі Магнуссен, Алан Тьюдік, Назим ПЕДРАДА, Марван Кензарі, Нуман Аджар, Френк Велкер, Навід Негабан

Сюжет:
Аграба – місто контрастів. У ньому живе дуже багато бідняків, які ледве зводять кінці з кінцями, іноді навіть переступаючи закон. Й у них на очах завжди є султанський палац, де люди явно не бідують. Одна випадкова зустріч злодюжки Аладіна із принцесою Жасмін вселила в серце хлопця любов. Але хто він, а хто вона? Його дріб'язкового стану явно не вистачить для того, щоб підкорити серце дівчини, яким би щирим і добрим хлопець не був. Але чистота Аладдіна знадобилася візирю Джафару – хлопець може допомогти йому добути бажану лампу із джином, яка знаходиться в зачарованій печері. Хлопцеві дійсно під силу її здобути – але йому ж необов'язково її віддавати Джафару, можна забрати джина собі, щоб той втілював усі бажання в життя.


Тривалість: 02:07:58
Якість: Remux 1080p

Відео:
кодек:
розмір кадру: 1920x1080
бітрейт: 24,9 мб/с

Аудіо # 1:
мова: українська
переклад: професійний дубльований | студія LeDoyen
кодек: 5.1
бітрейт: 640 кб/с

Аудіо # 2:
мова: українська
переклад: професійний дубльований | студія LeDoyen
кодек: 5.1
бітрейт: 1536 кб/с

Аудіо # 3:
мова: українська
переклад: професійний дубльований | студія LeDoyen
кодек: -HD MA 5.1
бітрейт: 3967 кб/с

Аудіо # 4:
мова: англійська
переклад: оригінал
кодек: 5.1
бітрейт: 1536 кб/с

Аудіо # 5:
мова: англійська
переклад: оригінал
кодек: -HD MA 7.1
бітрейт: 5316 кб/с

Субтитри: (Full, SDH)
мова: англійська
тип: програмні (м'які)
формат: *.srt
Info
Код:
General
Complete name                            : Aladdin (2019) Blu-Ray Remux 1080p [Ukr_Eng] [Video_Hurtom].
Format                                   :
Format version                           : Version 4
File size                                : 33.8 GiB
Duration                                 : 2 h 7 min
Overall bit rate mode                    : Variable
Overall bit rate                         : 37.8 Mb/s
Movie name                               : Aladdin (2019) Blu-Ray Remux 1080p [Ukr_Eng] [Video_Hurtom]
Encoded date                             : UTC 2019-08-31 19:57:28
Writing application                      : v30.1.0 ('Forever And More') 64-bit
Writing library                          : libebml v1.3.6 + v1.4.9

Video
ID                                       : 1
Format                                   : AVC
Format/Info                              : Advanced Video Codec
Format profile                           : [email protected]
Format settings                          : CABAC / 4 Ref Frames
Format settings, CABAC                   : Yes
Format settings, RefFrames               : 4 frames
Codec ID                                 : V_MPEG4/ISO/AVC
Duration                                 : 2 h 7 min
Bit rate mode                            : Variable
Bit rate                                 : 24.8 Mb/s
Maximum bit rate                         : 31.5 Mb/s
Width                                    : 1 920 pixels
Height                                   : 1 080 pixels
Display aspect ratio                     : 16:9
Frame rate mode                          : Constant
Frame rate                               : 23.976 (24000/1001) FPS
Color space                              : YUV
Chroma subsampling                       : 4:2:0
Bit depth                                : 8 bits
Scan type                                : Progressive
Bits/(Pixel*Frame)                       : 0.500
Stream size                              : 22.2 GiB (66%)
Language                                 : English
Default                                  : No
Forced                                   : No

Audio #1
ID                                       : 2
Format                                   : AC-3
Format/Info                              : Audio Coding 3
Commercial name                          : Dolby Digital
Codec ID                                 : A_AC3
Duration                                 : 2 h 7 min
Bit rate mode                            : Constant
Bit rate                                 : 640 kb/s
Channel(s)                               : 6 channels
Channel layout                           : L R C LFE Ls Rs
Sampling rate                            : 48.0 kHz
Frame rate                               : 31.250 FPS (1536 SPF)
Bit depth                                : 16 bits
Compression mode                         : Lossy
Stream size                              : 586 MiB (2%)
Title                                    : , 6 ch, 640 Кбт/с
Language                                 : Ukrainian
Service kind                             : Complete Main
Default                                  : No
Forced                                   : No

Audio #2
ID                                       : 3
Format                                   :
Format/Info                              : Digital Theater Systems
Codec ID                                 : A_DTS
Duration                                 : 2 h 7 min
Bit rate mode                            : Constant
Bit rate                                 : 1 509 kb/s
Channel(s)                               : 6 channels
Channel layout                           : C L R Ls Rs LFE
Sampling rate                            : 48.0 kHz
Frame rate                               : 93.750 FPS (512 SPF)
Bit depth                                : 24 bits
Compression mode                         : Lossy
Stream size                              : 1.35 GiB (4%)
Title                                    : , 6 ch, 1536 Кбт/с
Language                                 : Ukrainian
Default                                  : No
Forced                                   : No

Audio #3
ID                                       : 4
Format                                   : XLL
Format/Info                              : Digital Theater Systems
Commercial name                          : -HD Master Audio
Codec ID                                 : A_DTS
Duration                                 : 2 h 7 min
Bit rate mode                            : Variable
Bit rate                                 : 3 967 kb/s
Channel(s)                               : 6 channels
Channel layout                           : C L R Ls Rs LFE
Sampling rate                            : 48.0 kHz
Frame rate                               : 93.750 FPS (512 SPF)
Bit depth                                : 24 bits
Compression mode                         : Lossless
Stream size                              : 3.55 GiB (10%)
Title                                    : -HD MA, 6 ch, 3967 Кбт/с
Language                                 : Ukrainian
Default                                  : Yes
Forced                                   : No

Audio #4
ID                                       : 5
Format                                   :
Format/Info                              : Digital Theater Systems
Codec ID                                 : A_DTS
Duration                                 : 2 h 7 min
Bit rate mode                            : Constant
Bit rate                                 : 1 509 kb/s
Channel(s)                               : 6 channels
Channel layout                           : C L R Ls Rs LFE
Sampling rate                            : 48.0 kHz
Frame rate                               : 93.750 FPS (512 SPF)
Bit depth                                : 24 bits
Compression mode                         : Lossy
Stream size                              : 1.35 GiB (4%)
Title                                    : , 6 ch, 1536 Кбт/с
Language                                 : English
Default                                  : No
Forced                                   : No

Audio #5
ID                                       : 6
Format                                   : XLL
Format/Info                              : Digital Theater Systems
Commercial name                          : -HD Master Audio
Codec ID                                 : A_DTS
Duration                                 : 2 h 7 min
Bit rate mode                            : Variable
Bit rate                                 : 5 316 kb/s
Channel(s)                               : 8 channels
Channel layout                           : C L R LFE Lb Rb Lss Rss
Sampling rate                            : 48.0 kHz
Frame rate                               : 93.750 FPS (512 SPF)
Bit depth                                : 24 bits
Compression mode                         : Lossless
Stream size                              : 4.75 GiB (14%)
Title                                    : -HD MA, 8 ch, 5316 Кбт/с
Language                                 : English
Default                                  : No
Forced                                   : No

Text #1
ID                                       : 7
Format                                   : UTF-8
Codec ID                                 : S_TEXT/UTF8
Codec ID/Info                            : UTF-8 Plain Text
Duration                                 : 1 h 58 min
Bit rate                                 : 50 b/s
Count of elements                        : 1682
Stream size                              : 43.4 KiB (0%)
Title                                    : English full
Language                                 : English
Default                                  : No
Forced                                   : No

Text #2
ID                                       : 8
Format                                   : UTF-8
Codec ID                                 : S_TEXT/UTF8
Codec ID/Info                            : UTF-8 Plain Text
Duration                                 : 2 h 7 min
Bit rate                                 : 74 b/s
Count of elements                        : 2435
Stream size                              : 69.7 KiB (0%)
Title                                    : English SDH
Language                                 : English
Default                                  : No
Forced                                   : No

Menu
00:00:00.000                             : en:Chapter 01
00:04:49.372                             : en:Chapter 02
00:13:04.659                             : en:Chapter 03
00:18:55.760                             : en:Chapter 04
00:26:18.410                             : en:Chapter 05
00:30:26.324                             : en:Chapter 06
00:39:51.889                             : en:Chapter 07
00:54:50.162                             : en:Chapter 08
01:02:18.652                             : en:Chapter 09
01:09:19.489                             : en:Chapter 11
01:21:53.033                             : en:Chapter 12
01:33:51.417                             : en:Chapter 13
01:38:48.381                             : en:Chapter 14
01:45:19.396                             : en:Chapter 15
01:53:07.030                             : en:Chapter 16
01:59:38.463                             : en:Chapter 17
Скріншоти








Подяка пану Hanway за синхронізацію звуку.

Джерело:
Особиста оцінка: 0 - не дивився


Золотий реліз (завантажене не впливає на рейтинг)
 Трекер:    Зареєстрований   

Завантажити / скачати фільм українською



відео для новачків



 Зареєстрований:   2019-09-01 00:01
 Розмір:   33.78 GB 
 Оцінка фільму:   9.6/10 (Голосів: 19)
   
Інші релізи
   Аладдін / Aladdin (2019) 1080p 3D [Half OverUnder] Ukr/Eng | Sub Eng [16:9 Cropped] дядя1111  8 / 2   8.58 GB   2019-09-14 16:11 
   Аладдін / Aladdin (2019) UHD mini 4K 2160p HDR x265 Ukr/Eng | Sub Eng Babamin  10 / 0   16.58 GB   2019-09-07 10:36 
   Аладдін / Aladdin (2019) 1080p H.265 Ukr/Eng | Sub Eng -Star-Lord-  28 / 1   8.51 GB   2019-09-03 18:57 
   Аладдін / Aladdin (2019) UHD Remux 4K 2160p HDR H.265 Ukr/Eng | Sub Eng antik_2008  18 / 1   52.91 GB   2019-09-02 23:58 
   Аладдін / Aladdin (2019) antik_2008  82 / 1   2.18 GB   2019-09-01 00:39 
   Аладдін / Aladdin (2019) 1080p Ukr/Eng | Sub Eng antik_2008  54 / 1   16.68 GB   2019-08-31 22:54 
   Аладдін / Aladdin (2019) 1080p H.265 Ukr/Eng | Sub Eng antik_2008  39 / 3   10.41 GB   2019-08-31 22:19 
   Аладдін / Aladdin (2019) 720p Ukr/Eng | Sub Eng 11FrYkT  115 / 1   6.71 GB   2019-08-31 20:21 
   Аладдін / Aladdin (2019) AVC Ukr/Eng | Sub Eng 11FrYkT  93 / 0   2.41 GB   2019-08-31 17:22 
Pasha707 
Новенький


З нами з: 19.08.17
Востаннє: 15.09.19
Повідомлень: 16

2019-09-01 00:47  
Ви могли би викласти ще один Ремукс ? Але без украинського дубляжа на бiтрейт 1536, 3967 i англiйську убрати с бiтрейтом 5316 а 1536 можна залишити. Не в кожного така озвучка с таким великим бiтрейтом буде працювати як треба, а ще дуже багато гб займае.
Anonymous 







2019-09-01 01:30  
Pasha707
Так інший реліз завантажте.

https://toloka.to/t103622

наприклад

або самі можете це зробити

MKVToolNix

Монтаж і робота із контейнером [інструкція по mkvToolNix]

Black Horror 
Новенький


З нами з: 22.07.12
Востаннє: 08.09.19
Повідомлень: 15

2019-09-01 09:33  
Pasha707 написано:
Ви могли би викласти ще один Ремукс ? Але без украинського дубляжа


Вони вже тут! Вони серед нас!

Вжжж Бжжж 
Забанено
Забанено


З нами з: 26.07.19
Востаннє: 06.09.19
Повідомлень: 59

2019-09-01 17:13  
Оце мій розмір!
bygiii 
Новенький


З нами з: 28.03.13
Востаннє: 15.09.19
Повідомлень: 7

2019-09-02 16:24  
а буде реліз на 55-60гб?
Anonymous 







2019-09-02 18:27  
bygiii написано:
а буде реліз на 55-60гб?

Коли буде в мережі

https://toloka.to/t102735

umka1m 
Частий відвідувач


З нами з: 06.03.15
Востаннє: 15.09.19
Повідомлень: 28

2019-09-02 22:25  
доріжку окремо дтс-хд можна попросити у вас?
Anonymous 







2019-09-02 22:31  
umka1m написано:
доріжку окремо дтс-хд можна попросити у вас?

eng ?
ukr ?

umka1m 
Частий відвідувач


З нами з: 06.03.15
Востаннє: 15.09.19
Повідомлень: 28

2019-09-02 22:40  
Anonymous українську, нашу рідну.
Ваш часовий пояс: GMT + 2 Години

Нова тема   Відповісти