Аладдін / Aladdin (2019) 1080p Ukr/Eng | Sub Eng

Нові коментарі

Нова тема   Відповісти
Автор Повідомлення
Anonymous 







2019-08-31 22:54  
Аладдін / Aladdin (2019) 1080p Ukr/Eng | Sub Eng

Аладдін / Aladdin (2019) 1080p Ukr/Eng | Sub Eng
Постер
Аладдін / Aladdin (2019) 1080p Ukr/Eng | Sub Eng
Жанр: комедія, мюзикл, пригодницький, романтика, сімейний, фентезі
Країна: США



Кінокомпанія: Walt Disney Pictures
Режисер: Ґай Річі
Актори: Мена Массуд, Наомі Скотт, Уілл Сміт, Біллі Магнуссен, Алан Тьюдік, Назим ПЕДРАДА, Марван Кензарі, Нуман Аджар, Френк Велкер, Навід Негабан

Сюжет:
Аграба – місто контрастів. У ньому живе дуже багато бідняків, які ледве зводять кінці з кінцями, іноді навіть переступаючи закон. Й у них на очах завжди є султанський палац, де люди явно не бідують. Одна випадкова зустріч злодюжки Аладіна із принцесою Жасмін вселила в серце хлопця любов. Але хто він, а хто вона? Його дріб'язкового стану явно не вистачить для того, щоб підкорити серце дівчини, яким би щирим і добрим хлопець не був. Але чистота Аладдіна знадобилася візирю Джафару – хлопець може допомогти йому добути бажану лампу із джином, яка знаходиться в зачарованій печері. Хлопцеві дійсно під силу її здобути – але йому ж необов'язково її віддавати Джафару, можна забрати джина собі, щоб той втілював усі бажання в життя.


Тривалість: 02:07:58
Якість: 1080p
Відео:
кодек:
розмір кадру: 1920x804
бітрейт: 15 Мб/с

Аудіо # 1:
мова: українська
переклад: професійний дубльований | студія LeDoyen
кодек: 5.1
бітрейт: 640 кб/с

Аудіо # 2:
мова: українська
переклад: професійний дубльований | студія LeDoyen
кодек: 5.1
бітрейт: 1536 кб/с

Аудіо # 3:
мова: англійська
переклад: оригінал
кодек: 5.1
бітрейт: 1509 кб/с

Субтитри: (Full, SDH)
мова: англійська
тип: програмні (м'які)
формат: *.srt
Info
Код:
General
Complete name                            : Aladdin (2019) 1080p [Ukr_Eng] [Video_Hurtom].
Format                                   :
Format version                           : Version 4
File size                                : 16.7 GiB
Duration                                 : 2 h 7 min
Overall bit rate                         : 18.7 Mb/s
Movie name                               : Aladdin (2019) 1080p [Ukr_Eng] [Video_Hurtom]
Encoded date                             : UTC 2019-08-31 18:59:17
Writing application                      : v30.1.0 ('Forever And More') 64-bit
Writing library                          : libebml v1.3.6 + v1.4.9

Video
ID                                       : 1
Format                                   : AVC
Format/Info                              : Advanced Video Codec
Format profile                           : [email protected]
Format settings                          : CABAC / 5 Ref Frames
Format settings, CABAC                   : Yes
Format settings, RefFrames               : 5 frames
Codec ID                                 : V_MPEG4/ISO/AVC
Duration                                 : 2 h 7 min
Bit rate                                 : 15.0 Mb/s
Width                                    : 1 920 pixels
Height                                   : 804 pixels
Display aspect ratio                     : 2.40:1
Frame rate mode                          : Constant
Frame rate                               : 23.976 (24000/1001) FPS
Color space                              : YUV
Chroma subsampling                       : 4:2:0
Bit depth                                : 8 bits
Scan type                                : Progressive
Bits/(Pixel*Frame)                       : 0.405
Stream size                              : 13.4 GiB (80%)
Writing library                          : core 155 r2867+74 66b5600 t_mod_Custom_2 [[email protected] X86_64]
Encoding settings                        : cabac=1 / ref=5 / deblock=1:-3:-3 / analyse=0x3:0x133 / me=umh / subme=11 / psy=1 / fade_compensate=0.00 / psy_rd=1.00:0.00 / mixed_ref=1 / me_range=32 / chroma_me=1 / trellis=2 / 8x8dct=1 / cqm=0 / deadzone=21,11 / fast_pskip=0 / chroma_qp_offset=-2 / threads=18 / lookahead_threads=3 / sliced_threads=0 / nr=0 / decimate=0 / interlaced=0 / bluray_compat=0 / constrained_intra=0 / fgo=0 / bframes=8 / b_pyramid=2 / b_adapt=2 / b_bias=0 / direct=3 / weightb=1 / open_gop=0 / weightp=2 / keyint=250 / keyint_min=23 / scenecut=40 / intra_refresh=0 / rc=2pass / mbtree=0 / bitrate=15000 / ratetol=1.0 / qcomp=0.60 / qpmin=0:0:0 / qpmax=69:69:69 / qpstep=4 / cplxblur=20.0 / qblur=0.5 / ip_ratio=1.30 / pb_ratio=1.20 / aq=3:0.80 / aq-sensitivity=10.00 / aq-factor=1.00:1.00:1.00 / aq2=0 / aq3=0
Language                                 : English
Default                                  : Yes
Forced                                   : No
Color range                              : Limited
Matrix coefficients                      : BT.709

Audio #1
ID                                       : 2
Format                                   : AC-3
Format/Info                              : Audio Coding 3
Commercial name                          : Dolby Digital
Codec ID                                 : A_AC3
Duration                                 : 2 h 7 min
Bit rate mode                            : Constant
Bit rate                                 : 640 kb/s
Channel(s)                               : 6 channels
Channel layout                           : L R C LFE Ls Rs
Sampling rate                            : 48.0 kHz
Frame rate                               : 31.250 FPS (1536 SPF)
Bit depth                                : 16 bits
Compression mode                         : Lossy
Stream size                              : 586 MiB (3%)
Title                                    : , 6 ch, 640 Кбт/с
Language                                 : Ukrainian
Service kind                             : Complete Main
Default                                  : No
Forced                                   : No

Audio #2
ID                                       : 3
Format                                   :
Format/Info                              : Digital Theater Systems
Codec ID                                 : A_DTS
Duration                                 : 2 h 7 min
Bit rate mode                            : Constant
Bit rate                                 : 1 509 kb/s
Channel(s)                               : 6 channels
Channel layout                           : C L R Ls Rs LFE
Sampling rate                            : 48.0 kHz
Frame rate                               : 93.750 FPS (512 SPF)
Bit depth                                : 24 bits
Compression mode                         : Lossy
Stream size                              : 1.35 GiB (8%)
Title                                    : , 6 ch, 1535 Кбт/
Language                                 : Ukrainian
Default                                  : Yes
Forced                                   : No

Audio #3
ID                                       : 4
Format                                   :
Format/Info                              : Digital Theater Systems
Codec ID                                 : A_DTS
Duration                                 : 2 h 7 min
Bit rate mode                            : Constant
Bit rate                                 : 1 509 kb/s
Channel(s)                               : 6 channels
Channel layout                           : C L R Ls Rs LFE
Sampling rate                            : 48.0 kHz
Frame rate                               : 93.750 FPS (512 SPF)
Bit depth                                : 24 bits
Compression mode                         : Lossy
Stream size                              : 1.35 GiB (8%)
Title                                    : , 6 ch, 1509 Кбт/
Language                                 : English
Default                                  : No
Forced                                   : No

Text #1
ID                                       : 5
Format                                   : UTF-8
Codec ID                                 : S_TEXT/UTF8
Codec ID/Info                            : UTF-8 Plain Text
Duration                                 : 2 h 7 min
Bit rate                                 : 65 b/s
Count of elements                        : 2113
Stream size                              : 61.2 KiB (0%)
Title                                    : Full
Language                                 : English
Default                                  : No
Forced                                   : No

Text #2
ID                                       : 6
Format                                   : UTF-8
Codec ID                                 : S_TEXT/UTF8
Codec ID/Info                            : UTF-8 Plain Text
Duration                                 : 2 h 7 min
Bit rate                                 : 74 b/s
Count of elements                        : 2435
Stream size                              : 69.7 KiB (0%)
Title                                    : SDH
Language                                 : English
Default                                  : No
Forced                                   : No
Скріншоти




Подяка пану Hanway за синхронізацію звуку.

Джерело:
Особиста оцінка: 0 - не дивився


 Трекер:    Зареєстрований   

Завантажити / скачати фільм українською



відео для новачків



 Зареєстрований:   2019-08-31 22:54
 Розмір:   16.68 GB 
 Оцінка фільму:   9.4/10 (Голосів: 20)
   
Інші релізи
   Аладдін / Aladdin (2019) 1080p 3D [Half OverUnder] Ukr/Eng | Sub Eng [16:9 Cropped] дядя1111  8 / 3   8.58 GB   2019-09-14 16:11 
   Аладдін / Aladdin (2019) UHD mini 4K 2160p HDR x265 Ukr/Eng | Sub Eng Babamin  10 / 0   16.58 GB   2019-09-07 10:36 
   Аладдін / Aladdin (2019) 1080p H.265 Ukr/Eng | Sub Eng -Star-Lord-  28 / 1   8.51 GB   2019-09-03 18:57 
   Аладдін / Aladdin (2019) UHD Remux 4K 2160p HDR H.265 Ukr/Eng | Sub Eng antik_2008  19 / 1   52.91 GB   2019-09-02 23:58 
   Аладдін / Aladdin (2019) antik_2008  83 / 1   2.18 GB   2019-09-01 00:39 
   Аладдін / Aladdin (2019) Remux 1080p Ukr/Eng | Sub Eng antik_2008  36 / 0   33.78 GB   2019-09-01 00:01 
   Аладдін / Aladdin (2019) 1080p H.265 Ukr/Eng | Sub Eng antik_2008  39 / 3   10.41 GB   2019-08-31 22:19 
   Аладдін / Aladdin (2019) 720p Ukr/Eng | Sub Eng 11FrYkT  116 / 1   6.71 GB   2019-08-31 20:21 
   Аладдін / Aladdin (2019) AVC Ukr/Eng | Sub Eng 11FrYkT  95 / 0   2.41 GB   2019-08-31 17:22 
Ваш часовий пояс: GMT + 2 Години

Нова тема   Відповісти