Формула 1. Сезон 2019. Етап 13. Гран-Прі Бельгії. Кваліфікація (31.08.2019) 1080p 2xUkr,Eng

Нові коментарі

Нова тема   Відповісти
Останній раз роздавалося 12fffrog (2020-10-19)
Автор Повідомлення
sergiyko.5 
VIP


З нами з: 25.02.16
Востаннє: 20.10.20
Повідомлень: 3578

2019-08-31 18:25  
Формула 1. Сезон 2019. Етап 13. Гран-Прі Бельгії. Кваліфікація (31.08.2019) 1080p 2xUkr,Eng

Формула 1. Сезон 2019. Етап 13. Гран-Прі Бельгії. Кваліфікація (31.08.2019) 1080p 2xUkr,Eng

Жанр: Перегони Формули 1
Країна: Бельгія
Телеканал: F1 TV
Коментатор: Роман Гончаров, Максим Подзігун

Опис:
Кваліфікація тринадцятого етапу Гран-Прі Бельгії 2019 року.


Тривалість: 01:30:10
Якість:

Відео: кодек: розмір кадру: 1920 х 1080 бітрейт: 5500 кб/с
Аудіо: мова: українська кодек: 2.0 бітрейт: 192 кб/с
Аудіо: мова: українська кодек: 2.0 бітрейт: 192 кб/с
Аудіо: мова: англійська кодек: 2.0 бітрейт: 128 кб/с
Про файл:
General
Unique ID : 241232143689498118042184374156078783514 (0xB57B9EF3D42F0AF3E1930928DCFE9C1A)
Complete name : D:\Documents\Torrents\SPORT\F1.2019.13.Belgian.Qualifying.1080p..Ukr.Eng.
Format :
Format version : Version 4
File size : 3.79 GiB
Duration : 1 h 30 min
Overall bit rate : 6 017 kb/s
Movie name : rip by sergiyko
Encoded date : UTC 2019-08-31 23:01:09
Writing application : v36.0.0 ('Is That Jazz?') 64-bit
Writing library : libebml v1.3.9 + v1.5.2

Video
ID : 1
Format : AVC
Format/Info : Advanced Video Codec
Format profile : [email protected]
Format settings : CABAC / 4 Ref Frames
Format settings, CABAC : Yes
Format settings, Reference : 4 frames
Format settings, GOP : M=4, N=50
Codec ID : V_MPEG4/ISO/AVC
Duration : 1 h 30 min
Bit rate mode : Constant
Bit rate : 5 500 kb/s
Width : 1 920 pixels
Height : 1 080 pixels
Display aspect ratio : 16:9
Frame rate mode : Constant
Frame rate : 25.000 FPS
Color space : YUV
Chroma subsampling : 4:2:0
Bit depth : 8 bits
Scan type : Progressive
Bits/(Pixel*Frame) : 0.106
Stream size : 3.46 GiB (91%)
Language : English
Default : Yes
Forced : No

Audio #1
ID : 2
Format : AC-3
Format/Info : Audio Coding 3
Commercial name : Dolby Digital
Codec ID : A_AC3
Duration : 1 h 30 min
Bit rate mode : Constant
Bit rate : 192 kb/s
Channel(s) : 2 channels
Channel layout : L R
Sampling rate : 48.0 kHz
Frame rate : 31.250 FPS (1536 SPF)
Bit depth : 16 bits
Compression mode : Lossy
Delay relative to video : -23 ms
Stream size : 124 MiB (3%)
Title : Роман Гончаров
Language : Ukrainian
Service kind : Complete Main
Default : Yes
Forced : No

Audio #2
ID : 3
Format : AC-3
Format/Info : Audio Coding 3
Commercial name : Dolby Digital
Codec ID : A_AC3
Duration : 1 h 30 min
Bit rate mode : Constant
Bit rate : 192 kb/s
Channel(s) : 2 channels
Channel layout : L R
Sampling rate : 48.0 kHz
Frame rate : 31.250 FPS (1536 SPF)
Bit depth : 16 bits
Compression mode : Lossy
Delay relative to video : -23 ms
Stream size : 124 MiB (3%)
Title : Максим Подзігун
Language : Ukrainian
Service kind : Complete Main
Default : No
Forced : No

Audio #3
ID : 4
Format : LC
Format/Info : Advanced Audio Codec Low Complexity
Codec ID : A_AAC-2
Duration : 1 h 30 min
Bit rate : 132 kb/s
Channel(s) : 2 channels
Channel layout : L R
Sampling rate : 44.1 kHz
Frame rate : 43.066 FPS (1024 SPF)
Compression mode : Lossy
Delay relative to video : -23 ms
Stream size : 84.8 MiB (2%)
Language : English
Default : No
Forced : No
Скріншоти:


Запис/зведення: sergiyko


Золотий реліз (завантажене не впливає на рейтинг)
 Трекер:    Зареєстрований   

Завантажити / скачати торрент



відео для новачків



 Зареєстрований:   2019-09-01 02:06
 Розмір:   3.79 GB 
 Оцінка:   9.4/10 (Голосів: 16)
   
sergiyko.5 
VIP


З нами з: 25.02.16
Востаннє: 20.10.20
Повідомлень: 3578

2019-09-01 02:06  
Торент оновлено. Замінено відео на кращу якість.
armogun 
Попереджень: 1
Попереджень: 1 


З нами з: 04.05.13
Востаннє: 17.10.20
Повідомлень: 699

2019-09-01 16:17  
СТАРТ гонки ПРОСТО ЕПІК
Ваш часовий пояс: GMT + 2 Години

Нова тема   Відповісти