Банда Келлі / Ned Kelly (2003) 1080p 2хUkr/Eng | Sub Eng

Нові коментарі

Нова тема   Відповісти
Автор Повідомлення
MakRA 
VIP


З нами з: 11.11.18
Востаннє: 20.09.20
Повідомлень: 1119

2019-08-31 11:39  
Банда Келлі / Ned Kelly (2003) 1080p 2хUkr/Eng | Sub Eng

Банда Келлі / Ned Kelly (2003) 1080p 2хUkr/Eng | Sub Eng

Українські постери:


Жанр: екшн, пригодницький, біографічний
Країна: Австралія, Великобританія , США , Франція



Кінокомпанія: Australian Film Commission, The, Australian Film Finance Corporation (AFFC), Endymion Films
Режисер: Ґреґор Джордан [Gregor Jordan]
Актори: Гіт Леджер [Heath Ledger], Орландо Блум [Orlando Bloom], Джеффрі Раш [Geoffrey Rush], Наомі Вотс [Naomi Watts], Джоел Едґертон [Joel Edgerton], Лоуренс Кінлен [Laurence Kinlan], Філіп Барантіні [Philip Barantini], Керрі Кондон [Kerry Condon], Кріс МакКвейд [Kris McQuade], Емілі Браунінґ [Emily Browning]

Сюжет:
Екранізація роману Роберта Дрю про життя грабіжника і народного героя Австралії Неда Келлі австралійським режисером Ґрегором Джорданом.

Ще хлопчиком Нед несправедливо потрапляє за ґрати. Виходець з бідної ірландської родини, опинившись в ув'язненні він плекає в собі ненависть до місцевої поліції. І є за що. У неволі Нед сповна надивився на те, як несправедливо і по-жорстокому правоохоронці поводяться з тими ж ірландцями.

І ось коли Нед втікає з в'язниці, він зі своїм братом, а також друзями юності добивається торжества справедливості.

З цього часу Нед Келлі — зухвалий грабіжник державних банків. А всіма добутими грошима він щедро обдаровує фермерів, щоб ті могли погасити борги, а також використовує награбоване для викупу в'язнів з австралійських в'язниць.

Нагороди та номінації:

2003-Премія Австралійської академії кіно і телебачення в номінації «Найкраща робота художника-постановника»
2003-Премія Австралійської академії кіно і телебачення в номінації «Найкращий дизайн костюмів».



Тривалість: 01:49:51
Якість: 1080p
Відео:
кодек:
розмір кадру: 1920 х 816
бітрейт: 8,5 Mб/с

Аудіо # 1:
мова: українська
переклад: двоголосий закадровий
кодек: 2.0
бітрейт: 192 кб/с
Про озвучення:
Ролі озвучили:Павло Скороходько і Тетяна Антонова.
Аудіо # 2:
мова: українська
переклад: двоголосий закадровий
кодек: 2.0
бітрейт: 192 кб/с
Про озвучення:
Ролі озвучили:Олег Лепенець і Наталя Задніпровська.
Аудіо # 3:
мова: англійська
переклад: оригінал
кодек: 5.1
бітрейт: 1509 кб/с

Аудіо # 4:
мова: англійська
переклад: оригінал
кодек: 5.1
бітрейт: 384 кб/с

Субтитри: (Full)
мова: англійська
тип: програмні (м'які)
формат: *.srt
Info
General
Unique ID : 326464824994217477930776517926591831900 (0xF59AD695E255CAFEC0E43DAEDAA29F5C)
Complete name : F:\Біографічний, драма\Ned Kelly (2003) 1080p 2хUkrEng Sub Eng [Hurtom].
Format :
Format version : Version 4
File size : 7.94 GiB
Duration : 1 h 49 min
Overall bit rate : 10.3 Mb/s
Movie name : Банда Келлі / Ned Kelly (2003) 1080p 2хUkr/Eng | Sub Eng [Hurtom]
Encoded date : UTC 2019-08-31 08:08:35
Writing application : v25.0.0 ('Prog Noir') 64-bit
Writing library : libebml v1.3.6 + v1.4.9
Cover : Yes
Attachments : cover.jpg.jpg

Video
ID : 1
Format : AVC
Format/Info : Advanced Video Codec
Format profile : [email protected]
Format settings : CABAC / 5 Ref Frames
Format settings, CABAC : Yes
Format settings, Reference fra : 5 frames
Codec ID : V_MPEG4/ISO/AVC
Duration : 1 h 49 min
Bit rate : 8 450 kb/s
Width : 1 920 pixels
Height : 816 pixels
Display aspect ratio : 2.35:1
Frame rate mode : Constant
Frame rate : 23.976 (24000/1001) FPS
Original frame rate : 23.976 (23976/1000) FPS
Color space : YUV
Chroma subsampling : 4:2:0
Bit depth : 8 bits
Scan type : Progressive
Bits/(Pixel*Frame) : 0.225
Stream size : 6.48 GiB (82%)
Title : Ned Kelly (2003) 1080p 2хUkr/Eng | Sub Eng [Hurtom]
Writing library : core 120 r2120 0c7dab9
Encoding settings : cabac=1 / ref=5 / deblock=1:0:0 / analyse=0x3:0x133 / me=umh / subme=7 / psy=1 / psy_rd=1.00:0.00 / mixed_ref=1 / me_range=16 / chroma_me=1 / trellis=1 / 8x8dct=1 / cqm=0 / deadzone=21,11 / fast_pskip=0 / chroma_qp_offset=-2 / threads=12 / sliced_threads=0 / nr=0 / decimate=1 / interlaced=0 / bluray_compat=0 / constrained_intra=0 / bframes=3 / b_pyramid=2 / b_adapt=2 / b_bias=0 / direct=3 / weightb=1 / open_gop=0 / weightp=2 / keyint=250 / keyint_min=23 / scenecut=40 / intra_refresh=0 / rc_lookahead=50 / rc=2pass / mbtree=1 / bitrate=8450 / ratetol=1.0 / qcomp=0.60 / qpmin=0 / qpmax=69 / qpstep=4 / cplxblur=20.0 / qblur=0.5 / ip_ratio=1.40 / aq=1:1.00
Language : Ukrainian
Default : Yes
Forced : Yes

Audio #1
ID : 2
Format : AC-3
Format/Info : Audio Coding 3
Commercial name : Dolby Digital
Codec ID : A_AC3
Duration : 1 h 49 min
Bit rate mode : Constant
Bit rate : 192 kb/s
Channel(s) : 2 channels
Channel layout : L R
Sampling rate : 48.0 kHz
Frame rate : 31.250 FPS (1536 SPF)
Bit depth : 16 bits
Compression mode : Lossy
Stream size : 151 MiB (2%)
Title : DVO [НТН] 2.0
Language : Ukrainian
Service kind : Complete Main
Default : Yes
Forced : Yes

Audio #2
ID : 3
Format : AC-3
Format/Info : Audio Coding 3
Commercial name : Dolby Digital
Codec ID : A_AC3
Duration : 1 h 49 min
Bit rate mode : Constant
Bit rate : 192 kb/s
Channel(s) : 2 channels
Channel layout : L R
Sampling rate : 48.0 kHz
Frame rate : 31.250 FPS (1536 SPF)
Bit depth : 16 bits
Compression mode : Lossy
Stream size : 151 MiB (2%)
Title : DVO [TVi] 2.0
Language : Ukrainian
Service kind : Complete Main
Default : No
Forced : No

Audio #3
ID : 4
Format :
Format/Info : Digital Theater Systems
Codec ID : A_DTS
Duration : 1 h 49 min
Bit rate mode : Constant
Bit rate : 1 509 kb/s
Channel(s) : 6 channels
Channel layout : C L R Ls Rs LFE
Sampling rate : 48.0 kHz
Frame rate : 93.750 FPS (512 SPF)
Bit depth : 24 bits
Compression mode : Lossy
Stream size : 1.16 GiB (15%)
Title : Original 5.1
Language : English
Default : No
Forced : No

Text
ID : 5
Format : UTF-8
Codec ID : S_TEXT/UTF8
Codec ID/Info : UTF-8 Plain Text
Duration : 1 h 45 min
Bit rate : 45 b/s
Count of elements : 1212
Stream size : 35.5 KiB (0%)
Title : Eng (Full)
Language : English
Default : No
Forced : No
Скріншоти
Джерело: &
Особиста оцінка: 8 - мені сподобалося
Дякую п. karvai0 за доріжку №1, п. POMEO за запис звуку №2 з ТБ, п. Gelios та п. MutuLI за синхронізацію.
Також подяка п. pan_oleg та невідомому герою за українізовані постери


Срібний реліз (на рейтинг впливає 50% завантаженого)
 Трекер:    Зареєстрований   

Завантажити / скачати фільм українською



відео для новачків



 Зареєстрований:   2019-08-31 11:39
 Розмір:   7.94 GB 
 Оцінка фільму:   10/10 (Голосів: 6)
   
Інші релізи
   Банда Келлі / Ned Kelly (2003) 2xUkr/Eng Gelios  2 / 0   1.45 GB   2015-06-13 19:41 
+380954897458 
VIP


З нами з: 02.06.17
Востаннє: 18.09.20
Повідомлень: 942

2019-08-31 19:32  
Колись Неда Келлі грав Мік Джаггер у фільмі Тоні Річардсона 1970-го року. Цікаво, чи реально те кіно десь знайти? :-)
MakRA 
VIP


З нами з: 11.11.18
Востаннє: 20.09.20
Повідомлень: 1119

2019-08-31 19:43  
+380954897458 написано:
Цікаво, чи реально те кіно десь знайти? :-)

Є https://www.blu-ray.com/movies/Ned-Kelly-Blu-ray/132241/ , але немає озвучення українською (не знайшов)

+380954897458 
VIP


З нами з: 02.06.17
Востаннє: 18.09.20
Повідомлень: 942

2019-08-31 20:20  
MakRA
Так його там треба купляти? І часто Ви там фільми купляєте?

MakRA 
VIP


З нами з: 11.11.18
Востаннє: 20.09.20
Повідомлень: 1119

2019-08-31 20:44  
+380954897458
Та ні, перевіряю наявність blu ray там. В мережі десь бачив також.

AlexGrome 
Новенький


З нами з: 21.03.20
Востаннє: 19.09.20
Повідомлень: 5

2020-04-25 19:23  
+380954897458
Наскільки я зрозумів з деяких статей в інеті по цій темі, - цей фільм був не надто вдалим. Хіба що для щирих фанів Міка Джаггера. В нашому прокаті його не було.

Ваш часовий пояс: GMT + 2 Години

Нова тема   Відповісти