Медіум (Сезон 7) / Medium (Season 7) (2010-2011) 720p Ukr/Eng

Нові коментарі

Нова тема   Відповісти
Автор Повідомлення
Anonymous 







2019-08-30 20:00  
Медіум (Сезон 7) / Medium (Season 7) (2010-2011) 720p Ukr/Eng

Медіум (Сезон 7) / Medium (Season 7) (2010-2011) 720p Ukr/Eng


Жанр: драма, кримінальний, містика
Країна: США



Кінокомпанія: Picturemaker Productions, Grammnet Productions, Paramount Network Television
Режисер: Ґленн Ґордон Керон (Glenn Gordon Caron)
Актори: Патриція Аркетт (Patricia Arquette), Міґель Сандовал (Miguel Sandoval), Софія Васильєва (Sofia Vassilieva), Марія Ларк (Maria Lark), Джейк Вебер (Jake Weber), Девід К'юбітт (David Cubitt) та інші

Сюжет:
Звичайна домогосподарка, мати трьох дітей володіє унікальним даром - бачить уві сні реальні вбивства. Жінка-медіум одночасно допомагає поліції у затриманні злочинців і намагається не зруйнувати свою сім’ю.

Тривалість: ~ 43 хв. (цілком серій: 13)
Перелік серій
01) Bring Your Daughter to Work Day
02) The Match Game
03) Means and Ends
04) How to Kill a Good Guy
05) Talk to the Hand
06) Where Were You When...?
07) Native Tongue
08) Smoke Damage
09) The People in Your Neighborhood
10) Blood on the Tracks
11) Only Half Lucky
12) Labor Pains
13) Me Without You
Якість: 720p
Відео:
кодек:
розмір кадру: 1280 х 720
бітрейт: ~ 4000 кб/с

Аудіо # 1:
мова: українська
переклад: багатоголосий закадровий
кодек: 2.0
бітрейт: 192 кб/с

Аудіо # 2:
мова: англійська
переклад: оригінал
кодек: 5.1
бітрейт: 384 кб/с

Джерело озвучення:
Info
General
Unique ID : 193070196790922702504378537822790809397 (0x913FF7A363110A03CD54CF5DBF1EF735)
Complete name : E:\Support\Medium (Season 7) [, 720p, Ukr, Eng]\Medium. S07E01. Bring Your Daughter to Work Day.
Format :
Format version : Version 4
File size : 1.41 GiB
Duration : 44 min 7 s
Overall bit rate : 4 577 kb/s
Encoded date : UTC 2019-08-15 19:16:27
Writing application : v36.0.0 ('Is That Jazz?') 64-bit
Writing library : libebml v1.3.9 + v1.5.2

Video
ID : 1
Format : AVC
Format/Info : Advanced Video Codec
Format profile : [email protected]
Format settings : 2 Ref Frames
Format settings, CABAC : No
Format settings, ReFrames : 2 frames
Codec ID : V_MPEG4/ISO/AVC
Duration : 44 min 7 s
Bit rate : 3 999 kb/s
Width : 1 280 pixels
Height : 720 pixels
Display aspect ratio : 16:9
Frame rate mode : Constant
Frame rate : 23.976 (23976/1000) FPS
Color space : YUV
Chroma subsampling : 4:2:0
Bit depth : 8 bits
Scan type : Progressive
Bits/(Pixel*Frame) : 0.181
Stream size : 1.23 GiB (87%)
Language : English
Default : Yes
Forced : No
Color range : Limited
Color primaries : BT.709
Transfer characteristics : BT.709
Matrix coefficients : BT.709

Audio #1
ID : 2
Format : AC-3
Format/Info : Audio Coding 3
Commercial name : Dolby Digital
Codec ID : A_AC3
Duration : 44 min 7 s
Bit rate mode : Constant
Bit rate : 192 kb/s
Channel(s) : 2 channels
Channel layout : L R
Sampling rate : 48.0 kHz
Frame rate : 31.250 FPS (1536 SPF)
Bit depth : 16 bits
Compression mode : Lossy
Stream size : 60.6 MiB (4%)
Title : Індиго TV
Language : Ukrainian
Service kind : Complete Main
Default : Yes
Forced : No

Audio #2
ID : 3
Format : AC-3
Format/Info : Audio Coding 3
Commercial name : Dolby Digital
Codec ID : A_AC3
Duration : 44 min 7 s
Bit rate mode : Constant
Bit rate : 384 kb/s
Channel(s) : 6 channels
Channel layout : L R C LFE Ls Rs
Sampling rate : 48.0 kHz
Frame rate : 31.250 FPS (1536 SPF)
Bit depth : 16 bits
Compression mode : Lossy
Stream size : 121 MiB (8%)
Language : English
Service kind : Complete Main
Default : No
Forced : No
Скріншоти

Дякую sergiyko.5 за допомогу з записом з ТБ

Джерело: &
Особиста оцінка: 6 - вже таке...





Бронзовий реліз (на рейтинг впливає 75% завантаженого)
 Трекер:    Зареєстрований   

Завантажити / скачати серіал українською



відео для новачків



 Зареєстрований:   2019-08-30 20:00
 Розмір:   17.99 GB 
 Оцінка серіалу:   10/10 (Голосів: 7)
   
Ваш часовий пояс: GMT + 2 Години

Нова тема   Відповісти