Марвінова кімната / Marvin's Room (1996)

Нові коментарі

Нова тема   Відповісти
Автор Повідомлення
Anonymous 







2019-08-30 12:49  
Марвінова кімната / Marvin's Room (1996)

Марвінова кімната / Marvin's Room (1996)


Жанр: драма
Країна: США



Кінокомпанія: TriBeCa Productions
Режисер: Джеррі Закс / Jerry Zaks
Актори: Меріл Стріп / Meryl Streep, Даян Кітон / Diane Keaton , Леонардо ДіКапріо / Leonardo DiCaprio, Роберт Де Ніро / Robert De Niro, Г'юм Кронін / Hume Cronyn, Гвен Вердон / Gwen Verdon, Гел Скардіно / Hal Scardino, Ден Хедайя / Dan Hedaya, Марго Мартіндейл / Margo Martindale, Синтія Ніксон / Cynthia Nixon та інші.

Сюжет:
Марвін (Г'юм Кронін) - літня людина, яка після перенесеного інсульту багато років прикута до ліжка. Дві його дорослі дочки Бессі (Даян Кітон) і Лі (Меріл Стріп) - зовсім різні люди. Перша постійно піклується про батька, а друга 20 років тому вийшовши заміж і переїхавши в інший штат, жодного разу за ці роки не зв'язалася з сім'єю. Запальна, неврівноважена Лі, замкнулася у власному егоїзмі, втратила контакт з сімнадцятирічним сином (Леонардо ДіКапріо), стосунки з яким доводиться відновлювати з великими труднощами.


Тривалість: 01:38:22
Якість:
Відео:
кодек:
розмір кадру: 720 х 400
бітрейт: 1721 кб/с

Аудіо:
мова: українська
переклад: багатоголосий закадровий
кодек: 2.0
бітрейт: 192 кб/с
Info
Код:
General
Complete name               : Marvins Room (1996) [Ukr] [Hurtom].avi
Format                      : AVI
Format/Info                 : Audio Video Interleave
File size                   : 1.32 GiB
Duration                    : 1 h 38 min
Overall bit rate            : 1 923 kb/s
Movie name                  : Марвінова кімната / Marvin's Room (1996) [Ukr] [Hurtom]
Writing application         : VirtualDubModUkr 1.5.10.2 (build 2542/release)
Writing library             : VirtualDubMod build 2542/release

Video
ID                          : 0
Format                      : MPEG-4 Visual
Format profile              : Advanced [email protected]
Format settings             : BVOP1 / Custom Matrix
Format settings, BVOP       : 1
Format settings, QPel       : No
Format settings, GMC        : No warppoints
Format settings, Matrix     : Custom
Codec ID                    :
Codec ID/Hint               :
Duration                    : 1 h 38 min
Bit rate                    : 1 721 kb/s
Width                       : 720 pixels
Height                      : 400 pixels
Display aspect ratio        : 16:9
Frame rate                  : 23.976 (24000/1001) FPS
Color space                 : YUV
Chroma subsampling          : 4:2:0
Bit depth                   : 8 bits
Scan type                   : Progressive
Compression mode            : Lossy
Bits/(Pixel*Frame)          : 0.249
Stream size                 : 1.18 GiB (90%)
Writing library             : 65

Audio
ID                          : 1
Format                      : AC-3
Format/Info                 : Audio Coding 3
Commercial name             : Dolby Digital
Codec ID                    : 2000
Duration                    : 1 h 38 min
Bit rate mode               : Constant
Bit rate                    : 192 kb/s
Channel(s)                  : 2 channels
Channel layout              : L R
Sampling rate               : 48.0 kHz
Frame rate                  : 31.250 FPS (1536 SPF)
Bit depth                   : 16 bits
Compression mode            : Lossy
Stream size                 : 135 MiB (10%)
Alignment                   : Split across interleaves
Interleave, duration        : 42  ms (1.00 video frame)
Interleave, preload duratio : 500  ms
Title                       : UKR MVO [AMC]
Service kind                : Complete Main



Джерело: &
Подяка п.kryk-v.ya. за українську доріжку.


Срібний реліз (на рейтинг впливає 50% завантаженого)
 Трекер:    Зареєстрований   

Завантажити / скачати фільм українською



відео для новачків



 Зареєстрований:   2019-08-30 12:49
 Розмір:   1.32 GB 
 Оцінка фільму:   9.5/10 (Голосів: 6)
 ЗАЛИШАЙТЕСЬ ЯКОМОГА ДОВШЕ НА РОЗДАЧІ! ЗАВАНТАЖИВ САМ - ДАЙ ЗАВАНТАЖИТИ ІНШИМ!
   
Інші релізи
Ваш часовий пояс: GMT + 2 Години

Нова тема   Відповісти