Людина-Павук: Далеко від дому / Spider-Man: Far From Home (2019) Remux 1080p Ukr/Eng | Sub Ukr/Eng

Нові коментарі

Нова тема   Відповісти
Автор Повідомлення
Anonymous 







2019-08-30 12:36  
Людина-Павук: Далеко від дому / Spider-Man: Far From Home (2019) Remux 1080p Ukr/Eng | Sub Ukr/Eng

Людина-Павук: Далеко від дому / Spider-Man: Far From Home (2019) Remux 1080p Ukr/Eng | Sub Ukr/Eng


Жанр: бойовик, пригодницький, фантастика
Країна: США



Кінокомпанія: Sony Pictures, Columbia Pictures, Marvel Studios
Режисер: Джон Воттс
Актори: Том Холланд (II), Зенден Колеман, Семюель Л. Джексон, Джейк Джилленгол, Джон Фавро, Джейкоб Баталон, Кобі Смолдерс, Маріса Томей, Мартін Старр, Нуман Аджар, Енгаурі Райс, Тоні Револорі, Дж.К. Сіммонс, Ремі Хай, Дж.Б. Смув, Хорхе Лендеборг мл.

Сюжет:
"Доброзичливий сусід" Людина-Павук, як і належить, став героєм Нью-Йорка. Він допомагає місцевій поліції ловити злочинців, паралельно кидаючи різні колючі жарті. Але й героям потрібно відпочивати – тому, незважаючи на дзвінки самого директора "Щ.И.Т.а" Ніка Ф'юрі, Пітер Паркер разом зі своїми друзями Недом, Ем Джей й іншими відправився на канікули до Європи. Старовинні красиві міста, умиротворення та романтична обстановка, щоб прогулятися набережною із красивою дівчиною – ось що йому зараз потрібно. Але Нік Ф'юрі його все-таки знайшов і напряг роботою... Відмовляти йому – тільки собі дорожче. Людина-Павук повинен розібратися з містичною появою створінь-елементаліїв, які загрожують мирним жителям. Разом із Містеріо Пітер Паркер повинен впоратися з цим завданням. Відпочине коли-небудь іншим разом...


Тривалість: 02:09:24
Якість: Remux 1080p
Відео:
кодек:
розмір кадру: 1920x1080
бітрейт: 24,9 Мб/с

Аудіо # 1:
мова: українська
переклад: професійний дубльований
кодек: 5.1
бітрейт: 384 кб/с

Аудіо # 2:
мова: англійська
переклад: оригінал
кодек: 5.1
бітрейт: 640 кб/с

Аудіо # 3:
мова: англійська
переклад: оригінал
кодек: -HD MA 7.1
бітрейт: 2594 кб/с

Субтитри: (Full)
мова: українська
тип: програмні (м'які)
формат: *.srt

Субтитри: (Full, SDH)
мова: англійська
тип: програмні (м'які)
формат: *.srt
Info
Код:
General
Complete name                            : Spider-Man Far From Home (2019) Remux 1080p [ukr,eng] [Video_Hurtom].
Format                                   :
Format version                           : Version 4
File size                                : 25.8 GiB
Duration                                 : 2 h 9 min
Overall bit rate mode                    : Variable
Overall bit rate                         : 28.5 Mb/s
Movie name                               : Spider-Man Far From Home (2019) Remux 1080p [ukr,eng] [Video_Hurtom]
Encoded date                             : UTC 2019-09-28 09:53:52
Writing application                      : v30.1.0 ('Forever And More') 64-bit
Writing library                          : libebml v1.3.6 + v1.4.9
Cover                                    : Yes
Attachments                              : cover.jpg

Video
ID                                       : 1
Format                                   : AVC
Format/Info                              : Advanced Video Codec
Format profile                           : [email protected]
Format settings                          : CABAC / 2 Ref Frames
Format settings, CABAC                   : Yes
Format settings, RefFrames               : 2 frames
Format settings, GOP                     : M=1, N=10
Codec ID                                 : V_MPEG4/ISO/AVC
Duration                                 : 2 h 9 min
Bit rate mode                            : Variable
Bit rate                                 : 24.9 Mb/s
Width                                    : 1 920 pixels
Height                                   : 1 080 pixels
Display aspect ratio                     : 16:9
Frame rate mode                          : Constant
Frame rate                               : 23.976 (24000/1001) FPS
Color space                              : YUV
Chroma subsampling                       : 4:2:0
Bit depth                                : 8 bits
Scan type                                : Progressive
Bits/(Pixel*Frame)                       : 0.501
Stream size                              : 22.5 GiB (87%)
Language                                 : English
Default                                  : Yes
Forced                                   : No

Audio #1
ID                                       : 2
Format                                   : AC-3
Format/Info                              : Audio Coding 3
Commercial name                          : Dolby Digital
Codec ID                                 : A_AC3
Duration                                 : 2 h 9 min
Bit rate mode                            : Constant
Bit rate                                 : 384 kb/s
Channel(s)                               : 6 channels
Channel layout                           : L R C LFE Ls Rs
Sampling rate                            : 48.0 kHz
Frame rate                               : 31.250 FPS (1536 SPF)
Bit depth                                : 16 bits
Compression mode                         : Lossy
Delay relative to video                  : 1 s 0 ms
Stream size                              : 355 MiB (1%)
Title                                    : , 6 ch, 384 Кбт/с
Language                                 : Ukrainian
Service kind                             : Complete Main
Default                                  : Yes
Forced                                   : No

Audio #2
ID                                       : 3
Format                                   : AC-3
Format/Info                              : Audio Coding 3
Commercial name                          : Dolby Digital
Codec ID                                 : A_AC3
Duration                                 : 2 h 9 min
Bit rate mode                            : Constant
Bit rate                                 : 640 kb/s
Channel(s)                               : 6 channels
Channel layout                           : L R C LFE Ls Rs
Sampling rate                            : 48.0 kHz
Frame rate                               : 31.250 FPS (1536 SPF)
Bit depth                                : 16 bits
Compression mode                         : Lossy
Stream size                              : 592 MiB (2%)
Title                                    : , 6 ch, 640 Кбт/с
Language                                 : English
Service kind                             : Complete Main
Default                                  : No
Forced                                   : No

Audio #3
ID                                       : 4
Format                                   : XLL
Format/Info                              : Digital Theater Systems
Commercial name                          : -HD Master Audio
Codec ID                                 : A_DTS
Duration                                 : 2 h 9 min
Bit rate mode                            : Variable
Bit rate                                 : 2 594 kb/s
Channel(s)                               : 8 channels
Channel layout                           : C L R LFE Lb Rb Lss Rss
Sampling rate                            : 48.0 kHz
Frame rate                               : 93.750 FPS (512 SPF)
Bit depth                                : 16 bits
Compression mode                         : Lossless
Stream size                              : 2.34 GiB (9%)
Title                                    : -HD MA, 8 ch, 2594 Кбт/с
Language                                 : English
Default                                  : No
Forced                                   : No

Text #1
ID                                       : 5
Format                                   : UTF-8
Codec ID                                 : S_TEXT/UTF8
Codec ID/Info                            : UTF-8 Plain Text
Duration                                 : 2 h 8 min
Bit rate                                 : 94 b/s
Count of elements                        : 1759
Stream size                              : 89.3 KiB (0%)
Title                                    : Full [iTunes]
Language                                 : Ukrainian
Default                                  : No
Forced                                   : No

Text #2
ID                                       : 6
Format                                   : UTF-8
Codec ID                                 : S_TEXT/UTF8
Codec ID/Info                            : UTF-8 Plain Text
Duration                                 : 2 h 7 min
Bit rate                                 : 62 b/s
Count of elements                        : 1749
Stream size                              : 58.2 KiB (0%)
Title                                    : Full
Language                                 : English
Default                                  : No
Forced                                   : No

Text #3
ID                                       : 7
Format                                   : UTF-8
Codec ID                                 : S_TEXT/UTF8
Codec ID/Info                            : UTF-8 Plain Text
Duration                                 : 2 h 8 min
Bit rate                                 : 68 b/s
Count of elements                        : 1929
Stream size                              : 64.0 KiB (0%)
Title                                    : SDH
Language                                 : English
Default                                  : No
Forced                                   : No

Menu
00:00:00.000                             : en:00:00:00.000
00:09:35.033                             : en:00:09:35.033
00:16:06.716                             : en:00:16:06.716
00:25:18.475                             : en:00:25:18.475
00:35:26.499                             : en:00:35:26.499
00:41:57.014                             : en:00:41:57.014
00:49:50.029                             : en:00:49:50.029
00:57:09.509                             : en:00:57:09.509
01:04:50.637                             : en:01:04:50.637
01:15:57.219                             : en:01:15:57.219
01:22:49.089                             : en:01:22:49.089
01:29:25.193                             : en:01:29:25.193
01:36:43.256                             : en:01:36:43.256
01:44:47.364                             : en:01:44:47.364
01:52:17.397                             : en:01:52:17.397
01:57:45.433                             : en:01:57:45.433
Скріншоти




Джерело: &
За аудіо 5.1 подяка трекеру :

Особиста оцінка: 8 - мені сподобалося


Золотий реліз (завантажене не впливає на рейтинг)
 Трекер:    Зареєстрований   

Завантажити / скачати фільм українською



відео для новачків



 Зареєстрований:   2019-09-28 19:01
 Розмір:   25.8 GB 
 Оцінка фільму:   10/10 (Голосів: 9)
   
deryglazov 
Новенький


З нами з: 11.08.19
Востаннє: 02.10.19
Повідомлень: 1

2019-08-31 22:19  
а як скачати ???
Anonymous 







2019-08-31 22:38  
antik_2008 написано:
~26.09.2019


Це анонс

380964714831 
Новенький


З нами з: 04.11.17
Востаннє: 22.10.19
Повідомлень: 1

2019-09-02 08:44  
Яка приблизна дата виходу?
Anonymous 







2019-09-13 15:58  
380964714831 написано:
Яка приблизна дата виходу?

написано

libracinema 
Новенький


З нами з: 27.10.17
Востаннє: 22.10.19
Повідомлень: 14

2019-09-18 02:15  
А звук буде одразу 26.09 саме 5.1?.
Anonymous 







2019-09-20 22:12  
libracinema написано:
А звук буде одразу 26.09 саме 5.1?.

скоріше за все так

Tj1n 
Новенький


З нами з: 06.03.12
Востаннє: 26.09.19
Повідомлень: 6

2019-09-26 14:05  
то що сьогодні ?
Grisha36 
Частий відвідувач


З нами з: 22.08.16
Востаннє: 22.10.19
Повідомлень: 28

2019-09-26 15:04  
Tj1n
+1

sandman 
VIP


З нами з: 12.08.12
Востаннє: 22.10.19
Повідомлень: 285

2019-09-26 21:54  
вже є ремукс. Стягнув. Наш звук iTunes [email protected] Може вже релізнути з таким вже як є звуком, а тоді оновити. Бо вже ремукса зачекалися
Anonymous 







2019-09-26 22:30  
Tj1n написано:
~

Grisha36
sandman
~ 26 ....

а так відразу викладу 5.1

поки що є інші ріпи

Grisha36 
Частий відвідувач


З нами з: 22.08.16
Востаннє: 22.10.19
Повідомлень: 28

2019-09-27 00:16  
Anonymous
Зрозуміло дякую

bot 
робот


З нами з: 30.09.07
Востаннє: 26.05.05
Повідомлень: 22333

2019-09-28 19:01  
Тему перенесено з Анонси релізів до форуму Фільми в HD


antik_2008

NEON252 
Новенький


З нами з: 28.01.10
Востаннє: 22.10.19
Повідомлень: 10

2019-10-02 14:10  
Чому нічого не качається? Це в мене так чи ще в когось?
Жодну роздачу з толоки не можу завантажити((

Anonymous 







2019-10-02 18:14  
NEON252
Напевно у вас

vash1 
Поважний учасник


З нами з: 16.03.16
Востаннє: 17.10.19
Повідомлень: 209

2019-10-07 15:50  
сподобалось!

чи вкурсі хтось про IMAX версію?
гугл лише єдину статтю на Форбс видає

Ваш часовий пояс: GMT + 2 Години

Нова тема   Відповісти