Люди Ікс: Темний фенікс / Dark Phoenix (2019) UHD Remux 4K 2160p HDR H.265 Ukr/Eng | Sub Ukr/Eng

Нові коментарі

Нова тема   Відповісти
Автор Повідомлення
Anonymous 







2019-08-30 11:02  
Люди Ікс: Темний фенікс / Dark Phoenix (2019) UHD Remux 4K 2160p HDR H.265 Ukr/Eng | Sub Ukr/Eng


Альтернативний постер

«Фенікс вознесеться. Люди ікс впадуть»



Жанр: бойовик, пригодницький, фантастика
Країна: США



Кінокомпанія: Twentieth Century Fox, Bad Hat Harry Productions, Donners' Company
Режисер: Саймон Кінберг
Актори: Джеймс МакЕвой, Майкл Фассбендер, Дженніфер Лоуренс, Ніколас Холт, Софі Тернер, Тай Шерідан, Еван Пітерс, Коді Сміт-МакФі, Джессіка Честейн

Сюжет:
У новому фільмі Людям Ікс доведеться стикнутися з найжахливішим та найпотужнішим ворогом — Джин Ґрей, яка є однією з них. Виконуючи рятувальну місію у космосі, Джин ледь не загинула від удару таємничої вселенської сили. Після повернення додому виявляється, що та сама сила зробила Джин не лише всемогутньою, але й украй неврівноваженою. Борючись із власною внутрішньою сутністю, Джин дає волю своїм суперможливостям таким чином, що тепер не може їх ані усвідомити, ані приборкати.


Тривалість: 01:53:56
Якість: UHD Remux 4K 2160p

Відео:
кодек: H.265 (HEVC)
розмір кадру: 3840x2160
бітрейт: 49,7 Мб/с
бітова глибина: 10 біт
кольоровий простір: BT.2020 (HDR)

Аудіо # 1:
мова: українська
переклад: професійний дубльований | студія Postmodern
кодек: 5.1
бітрейт: 448 кб/с
Інформація про дубляж
Аудіо # 2:
мова: англійська
переклад: оригінал
кодек: 5.1
бітрейт: 640 кб/с

Аудіо # 3:
мова: англійська
переклад: оригінал
кодек: TrueHD + Atmos 7.1
бітрейт: 4775 кб/с

Субтитри # 1-2: (Forced, Full)
мова: українська
тип: програмні (м'які)
формат: *.srt

Субтитри # 3, 4, 5: (Forced, Full, SDH)
мова: англійська
тип: програмні (м'які)
формат: *.srt
Info
Код:
General
Complete name                            : Dark Phoenix (2019) UHD Remux 4K 2160p HDR H.265 (HEVC) [UKR_ENG] [ViDeO_Hurtom].
Format                                   :
Format version                           : Version 4
File size                                : 44.3 GiB
Duration                                 : 1 h 53 min
Overall bit rate mode                    : Variable
Overall bit rate                         : 55.6 Mb/s
Movie name                               : Dark Phoenix (2019) UHD Remux 4K 2160p HDR H.265 (HEVC) [UKR_ENG] [ViDeO_Hurtom]
Encoded date                             : UTC 2019-09-08 09:08:03
Writing application                      : v30.1.0 ('Forever And More') 64-bit
Writing library                          : libebml v1.3.6 + v1.4.9
Attachments                              : dark-phoenix-2019-_550.jpg

Video
ID                                       : 1
Format                                   : HEVC
Format/Info                              : High Efficiency Video Coding
Commercial name                          : HDR10
Format profile                           : Main [email protected]@High
Codec ID                                 : V_MPEGH/ISO/HEVC
Duration                                 : 1 h 53 min
Bit rate                                 : 49.7 Mb/s
Width                                    : 3 840 pixels
Height                                   : 2 160 pixels
Display aspect ratio                     : 16:9
Frame rate mode                          : Constant
Frame rate                               : 23.976 (24000/1001) FPS
Color space                              : YUV
Chroma subsampling                       : 4:2:0 (Type 2)
Bit depth                                : 10 bits
Bits/(Pixel*Frame)                       : 0.250
Stream size                              : 39.6 GiB (89%)
Writing library                          : ATEME Titan File 3.9.0 (4.9.0.0)
Language                                 : English
Default                                  : Yes
Forced                                   : No
Color range                              : Limited
Color primaries                          : BT.2020
Transfer characteristics                 : PQ
Matrix coefficients                      : BT.2020 non-constant
Mastering display color primaries        : Display P3
Mastering display luminance              : min: 0.0050 cd/m2, max: 1000 cd/m2

Audio #1
ID                                       : 2
Format                                   : AC-3
Format/Info                              : Audio Coding 3
Commercial name                          : Dolby Digital
Codec ID                                 : A_AC3
Duration                                 : 1 h 53 min
Bit rate mode                            : Constant
Bit rate                                 : 448 kb/s
Channel(s)                               : 6 channels
Channel layout                           : L R C LFE Ls Rs
Sampling rate                            : 48.0 kHz
Frame rate                               : 31.250 FPS (1536 SPF)
Bit depth                                : 16 bits
Compression mode                         : Lossy
Stream size                              : 365 MiB (1%)
Title                                    : , 6 ch, 448 Кбт/с
Language                                 : Ukrainian
Service kind                             : Complete Main
Default                                  : Yes
Forced                                   : No

Audio #2
ID                                       : 3
Format                                   : AC-3
Format/Info                              : Audio Coding 3
Commercial name                          : Dolby Digital
Codec ID                                 : A_AC3
Duration                                 : 1 h 53 min
Bit rate mode                            : Constant
Bit rate                                 : 640 kb/s
Channel(s)                               : 6 channels
Channel layout                           : L R C LFE Ls Rs
Sampling rate                            : 48.0 kHz
Frame rate                               : 31.250 FPS (1536 SPF)
Bit depth                                : 16 bits
Compression mode                         : Lossy
Stream size                              : 522 MiB (1%)
Title                                    : , 6 ch, 640 Кбт/с
Language                                 : English
Service kind                             : Complete Main
Default                                  : No
Forced                                   : No

Audio #3
ID                                       : 4
Format                                   : MLP FBA 16-ch
Format/Info                              : Meridian Lossless Packing FBA with 16-channel presentation
Commercial name                          : Dolby TrueHD with Dolby Atmos
Codec ID                                 : A_TRUEHD
Duration                                 : 1 h 53 min
Bit rate mode                            : Variable
Bit rate                                 : 4 775 kb/s
Maximum bit rate                         : 7 464 kb/s
Channel(s)                               : 8 channels
Channel layout                           : L R C LFE Ls Rs Lb Rb
Sampling rate                            : 48.0 kHz
Frame rate                               : 1 200.000 FPS (40 SPF)
Compression mode                         : Lossless
Stream size                              : 3.80 GiB (9%)
Title                                    : TrueHD, 8 ch, 4775 Кбт/с
Language                                 : English
Default                                  : No
Forced                                   : No
Number of dynamic objects                : 13
Bed channel count                        : 1 channel
Bed channel configuration                : LFE

Text #1
ID                                       : 5
Format                                   : UTF-8
Codec ID                                 : S_TEXT/UTF8
Codec ID/Info                            : UTF-8 Plain Text
Duration                                 : 1 h 52 min
Bit rate                                 : 0 b/s
Count of elements                        : 10
Stream size                              : 347 Bytes (0%)
Title                                    : Forced
Language                                 : Ukrainian
Default                                  : Yes
Forced                                   : No

Text #2
ID                                       : 6
Format                                   : UTF-8
Codec ID                                 : S_TEXT/UTF8
Codec ID/Info                            : UTF-8 Plain Text
Duration                                 : 1 h 52 min
Bit rate                                 : 55 b/s
Count of elements                        : 1097
Stream size                              : 45.9 KiB (0%)
Title                                    : Full
Language                                 : Ukrainian
Default                                  : No
Forced                                   : No

Text #3
ID                                       : 7
Format                                   : UTF-8
Codec ID                                 : S_TEXT/UTF8
Codec ID/Info                            : UTF-8 Plain Text
Duration                                 : 31 min 20 s
Bit rate                                 : 0 b/s
Count of elements                        : 4
Stream size                              : 168 Bytes (0%)
Title                                    : Forced
Language                                 : English
Default                                  : No
Forced                                   : No

Text #4
ID                                       : 8
Format                                   : UTF-8
Codec ID                                 : S_TEXT/UTF8
Codec ID/Info                            : UTF-8 Plain Text
Duration                                 : 1 h 52 min
Bit rate                                 : 38 b/s
Count of elements                        : 1135
Stream size                              : 31.5 KiB (0%)
Title                                    : Full
Language                                 : English
Default                                  : No
Forced                                   : No

Text #5
ID                                       : 9
Format                                   : UTF-8
Codec ID                                 : S_TEXT/UTF8
Codec ID/Info                            : UTF-8 Plain Text
Duration                                 : 1 h 53 min
Bit rate                                 : 43 b/s
Count of elements                        : 1414
Stream size                              : 36.4 KiB (0%)
Title                                    : SDH
Language                                 : English
Default                                  : No
Forced                                   : No

Menu
00:00:00.000                             : en:Chapter 01
00:03:28.541                             : en:Chapter 02
00:07:33.995                             : en:Chapter 03
00:11:41.867                             : en:Chapter 04
00:15:43.776                             : en:Chapter 05
00:18:37.074                             : en:Chapter 06
00:25:24.147                             : en:Chapter 07
00:31:40.023                             : en:Chapter 08
00:34:18.973                             : en:Chapter 09
00:40:07.113                             : en:Chapter 10
00:44:35.756                             : en:Chapter 11
00:49:07.319                             : en:Chapter 12
00:55:37.834                             : en:Chapter 13
00:58:57.075                             : en:Chapter 14
01:02:55.521                             : en:Chapter 15
01:10:39.777                             : en:Chapter 16
01:13:42.084                             : en:Chapter 17
01:19:32.893                             : en:Chapter 18
01:22:35.367                             : en:Chapter 19
01:25:48.351                             : en:Chapter 20
01:30:37.849                             : en:Chapter 21
01:32:47.603                             : en:Chapter 22
01:37:59.290                             : en:Chapter 23
01:45:00.711                             : en:Chapter 24
Скріншоти




Джерело: &
Особиста оцінка: 9 - давно не бачив настільки якісне кіно
Увага! Перед завантаженням переконайтесь, що ваш пристрій відтворення (та/або ПЗ) підтримує H.265 (HEVC)


Золотий реліз (завантажене не впливає на рейтинг)
 Трекер:    Зареєстрований   

Завантажити / скачати фільм українською



відео для новачків



 Зареєстрований:   2019-09-08 12:38
 Розмір:   44.27 GB 
 Оцінка фільму:   8.1/10 (Голосів: 14)
   
77997997 
VIP


З нами з: 26.02.13
Востаннє: 11.11.19
Повідомлень: 847

2019-08-30 16:47  
Вже вийшов блур з нашою 5.1 доріжкою
Anonymous 







2019-08-30 16:52  
77997997 написано:
Вже вийшов блур з нашою 5.1 доріжкою

Круто. Залишилось дочекатися Happy

warden4ik 
Новенький


З нами з: 21.06.15
Востаннє: 09.11.19
Повідомлень: 1

2019-08-30 19:02  
77997997
де підскажіть?

Аркадій Дзиґа 
VIP


З нами з: 09.10.14
Востаннє: 11.11.19
Повідомлень: 319

2019-08-30 20:32  
Настільки сюжетно-однотипне кіно боротьби Космомегазла з Силами Добра зі Всесвітів Марвела та Людей Ікс. Нуль ориґінальности на фоні штампованих спецефектів. Щоправда ''Людина-Мураха'' вирізняється.
Anonymous 







2019-08-30 20:34  
warden4ik написано:

77997997
де підскажіть?

В Китаї Happy

igor911 
Модератор відео


З нами з: 18.01.08
Востаннє: 11.11.19
Повідомлень: 13628

2019-08-31 16:11  
77997997 написано:
Вже вийшов блур з нашою 5.1 доріжкою

виклали на блубірді

LastExile 
Частий відвідувач


З нами з: 25.09.10
Востаннє: 07.11.19
Повідомлень: 25

2019-09-07 16:05  
Коли? =)
Anonymous 







2019-09-07 20:50  
LastExile написано:
Dark Phoenix

На трекері вже є інші якості

LastExile 
Частий відвідувач


З нами з: 25.09.10
Востаннє: 07.11.19
Повідомлень: 25

2019-09-07 22:25  
Anonymous
Пффффф, 4к як 1080р ремуск. Я пасс.

Anonymous 







2019-09-08 09:53  
LastExile
сьогодні буде

bot 
робот


З нами з: 30.09.07
Востаннє: 26.05.05
Повідомлень: 22453

2019-09-08 12:38  
Тему перенесено з Анонси релізів до форуму Фільми в HD


antik_2008

f1lia 
Новенький


З нами з: 25.02.15
Востаннє: 12.11.19
Повідомлень: 14

2019-09-16 09:00  
Щось мене попалась версія без hdr
Ваш часовий пояс: GMT + 2 Години

Нова тема   Відповісти