Менсфілд Парк / Mansfield Park (1999)

Нові коментарі

Нова тема   Відповісти
Автор Повідомлення
Anonymous 







2019-08-30 11:48  
Менсфілд Парк / Mansfield Park (1999)

Менсфілд Парк / Mansfield Park (1999)


Жанр: драма, мелодрама, комедія
Країна: Велика Британія



Кінокомпанія: Arts Council England, BBC, HAL Films, Miramax Films
Режисер: Патриція Розема / Patricia Rozema
Актори: Френсіс О'Коннор / Frances O'Connor, Шейла Гіш / Sheila Gish, Гарольд Пінтер / Harold Pinter, Ліндсі Дункан / Lindsay Duncan, Джонні Лі Міллер / Jonny Lee Miller, Алессандро Нівола / Alessandro Nivola, Вікторія Гамільтон / Victoria Hamilton, Джастін Водделл / Justine Waddell, Ембет Девідц / Embeth Davidtz, Джеймс Пюрфой / James Purefoy, Г'ю Бонневілль / Hugh Bonneville та інші.

Сюжет:
Коли Фанні Прайс виповнилося 12 років, вона переїхала у свій рідний маєток в Менсфілді, в якому жили її багаті родичі. Добра і вихована дівчина ще з юного віку була позбавлена ​​материнської любові, турботи і уваги. Вона змогла знайти спільну мову і потоваришувати тільки зі своїм кузеном Едмундом. Але минув час, дівчина виросла та стала чарівною і милою молодою леді. І тепер перед нею постав вибір: забезпечене життя чи кохання.


Тривалість: 01:51:59
Якість: [Hurtom, джерело - Remux]
Відео:
кодек:
розмір кадру: 704х384
бітрейт: 1652 кб/с

Аудіо:
мова: українська
переклад: багатоголосий закадровий
кодек: 2.0
бітрейт: 192 кб/с
Info
Код:
General
Complete name               : Mansfield Park (1999) [Ukr] [Hurtom].avi
Format                      : AVI
Format/Info                 : Audio Video Interleave
File size                   : 1.45 GiB
Duration                    : 1 h 51 min
Overall bit rate            : 1 853 kb/s
Movie name                  : Mansfield Park (1999) [Ukr] [Hurtom]
Writing application         : VirtualDubModUkr 1.5.10.2 (build 2542/release)
Writing library             : VirtualDubMod build 2542/release

Video
ID                          : 0
Format                      : MPEG-4 Visual
Format profile              : Advanced [email protected]
Format settings             : BVOP1
Format settings, BVOP       : 1
Format settings, QPel       : No
Format settings, GMC        : No warppoints
Format settings, Matrix     : Default (MPEG)
Codec ID                    :
Codec ID/Hint               :
Duration                    : 1 h 51 min
Bit rate                    : 1 652 kb/s
Width                       : 704 pixels
Height                      : 384 pixels
Display aspect ratio        : 1.85:1
Frame rate                  : 24.000 FPS
Color space                 : YUV
Chroma subsampling          : 4:2:0
Bit depth                   : 8 bits
Scan type                   : Progressive
Compression mode            : Lossy
Bits/(Pixel*Frame)          : 0.255
Stream size                 : 1.29 GiB (89%)
Writing library             : 67

Audio
ID                          : 1
Format                      : AC-3
Format/Info                 : Audio Coding 3
Commercial name             : Dolby Digital
Codec ID                    : 2000
Duration                    : 1 h 51 min
Bit rate mode               : Constant
Bit rate                    : 192 kb/s
Channel(s)                  : 2 channels
Channel layout              : L R
Sampling rate               : 48.0 kHz
Frame rate                  : 31.250 FPS (1536 SPF)
Bit depth                   : 16 bits
Compression mode            : Lossy
Stream size                 : 154 MiB (10%)
Alignment                   : Split across interleaves
Interleave, duration        : 42  ms (1.00 video frame)
Interleave, preload duratio : 500  ms
Title                       : UKR MVO [AMC]
Service kind                : Complete Main



Джерело:
Подяка п.kryk-v.ya. за українську доріжку та реліз-першоджерело


Срібний реліз (на рейтинг впливає 50% завантаженого)
 Трекер:    Зареєстрований   

Завантажити / скачати фільм українською



відео для новачків



 Зареєстрований:   2019-08-30 11:48
 Розмір:   1.45 GB 
 Оцінка фільму:   9.5/10 (Голосів: 10)
 ЗАЛИШАЙТЕСЬ ЯКОМОГА ДОВШЕ НА РОЗДАЧІ! ЗАВАНТАЖИВ САМ - ДАЙ ЗАВАНТАЖИТИ ІНШИМ!
   
Інші релізи
sabretus 
Новенький


З нами з: 28.12.10
Востаннє: 13.10.19
Повідомлень: 15

2019-09-01 20:05  
Непоганий фільм для вечірнього перегляду, навіть не нудний
Ваш часовий пояс: GMT + 2 Години

Нова тема   Відповісти