Титанік / Titanic (1997) UHD Remux 4K 2160p HDR H.265 3хUkr/Eng | Sub Ukr/Eng

Нові коментарі

Нова тема   Відповісти
Автор Повідомлення
seasky 
Частий відвідувач


З нами з: 28.02.19
Востаннє: 20.01.21
Повідомлень: 29

2019-08-30 00:57  
Титанік / Titanic (1997) UHD Remux 4K 2160p HDR H.265 3хUkr/Eng | Sub Ukr/Eng

Титанік / Titanic (1997) UHD Remux 4K 2160p HDR H.265 3хUkr/Eng | Sub Ukr/Eng
Додаткові постери




Жанр: драма, романтичний
Країна: США



Рейтинг MPAA: PG-13 - дітям до 13 років перегляд не бажаний
Вікова категорія: 12+

Кінокомпанія: Paramount Pictures, Twentieth Century Fox Film Corporation, Lightstorm Entertainment, Paramount, 20th Century Fox
Режисер: Джеймс Кемерон / James Cameron
Актори: Леонардо ДіКапріо / Leonardo Di Caprio, Кейт Вінслет / Kate Winslet, Біллі Зейн / Billy Zane, Кеті Бейтс / Kathy Bates, Френсіс Фішер / Frances Fisher, Глорія Стюарт / Gloria Stuart, Білл Пекстон / Bill Paxton та інші.

Сюжет:
Сага про найлегендарнішу катастрофу ХХ століття та історію кохання, яке вразило весь світ. Корабель-палац, зроблений за останнім словом техніки, залишив гавань і відправився у свій перший рейс. Ніхто з пасажирів, що зійшли на борт «Титаніка», не знав, що ця подорож стане його єдиним плаванням. Бідний художник Джек Доусон, який випадково потрапив на борт лайнера, закохується в красиву і багату аристократку Розі Дьюітт Букейтер. Вона відповідає йому взаємністю. Але їх мрії і райдужні надії розкололися об айсберг в холодних водах Північної Атлантики вночі 14 квітня 1912 року ...


Тривалість: 03:14:50
Якість: UltraHD Remux 4K 2160p
Відео:

кодек: H.265 (HEVC)
розмір кадру: 3840 х 2160
бітрейт: 65,2 Mб/с
бітова глибина: 10 біт
кольоровий простір: BT.2020 (HDR)
Увага! Перед завантаженням переконайтесь, що ваш пристрій відтворення (та/або ПЗ) підтримує H.265 (HEVC)

Аудіо # 1:
мова: українська
переклад: професійний дубльований
кодек: 5.1
бітрейт: 448 кб/с

Аудіо # 2:
мова: українська
переклад: багатоголосий закадровий
кодек: 2.0
бітрейт: 192 кб/с

Аудіо # 3:
мова: українська
переклад: багатоголосий закадровий
кодек: 2.0
бітрейт: 192 кб/с

Аудіо # 4:
мова: англійська
переклад: оригінал
кодек: -HD 5.1
бітрейт: 3 893 кб/с

Аудіо # 5:
мова: англійська
переклад: оригінал, aудіоопис
кодек: 5.1
бітрейт: 640 кб/с

Аудіо # 6:
мова: англійська
переклад: оригінал, коментарі
кодек: 2.0
бітрейт: 224 кб/с

Аудіо # 7:
мова: англійська
переклад: оригінал, коментарі
кодек: 2.0
бітрейт: 224 кб/с

Аудіо # 8:
мова: англійська
переклад: оригінал, коментарі
кодек: 2.0
бітрейт: 224 кб/с

Субтитри:
мова: українська (форсовані)
тип: програмні (м'які)
формат: *.srt

Субтитри:
мова: українська (повні)
тип: програмні (м'які)
формат: *.srt

Субтитри:
мова: англійська (повні)
тип: програмні (м'які)
формат: *.srt

Субтитри:
мова: англійська
тип: пререндерні
формат: PGS

Субтитри:
мова: англійська
тип: пререндерні
формат: PGS
Info
General
Unique ID : 234274682579421654699544720650662948657 (0xB03FA9A2B830203CDA99BC817C61AF31)
Complete name : N:\Titanic 1997 UHD Remux 4K 2160p HDR 10 H.265 UkrEng Sub UkrEng [Hurtom].
Format :
Format version : Version 4
File size : 96.9 GiB
Duration : 3 h 14 min
Overall bit rate mode : Variable
Overall bit rate : 71.3 Mb/s
Movie name : Titanic 1997 UHD Remux 4K 2160p HDR 10 H.265 UkrEng Sub UkrEng [Hurtom}
Encoded date : UTC 2019-08-29 14:26:58
Writing application : v36.0.0 ('Is That Jazz?') 64-bit
Writing library : libebml v1.3.9 + v1.5.2
Cover : Yes
Attachments : cover.jpg

Video
ID : 1
Format : HEVC
Format/Info : High Efficiency Video Coding
Format profile : Main [email protected]@High
Codec ID : V_MPEGH/ISO/HEVC
Duration : 3 h 14 min
Bit rate : 65.2 Mb/s
Width : 3 840 pixels
Height : 2 160 pixels
Display aspect ratio : 16:9
Frame rate mode : Constant
Frame rate : 23.976 (24000/1001) FPS
Standard : PAL
Color space : YUV
Chroma subsampling : 4:2:0 (Type 2)
Bit depth : 10 bits
Bits/(Pixel*Frame) : 0.328
Stream size : 88.6 GiB (92%)
Title : Titanic 1997 UHD Remux 4K 2160p HDR
Language : English
Default : Yes
Forced : No
Color range : Limited
Color primaries : BT.2020
Transfer characteristics : PQ
Matrix coefficients : BT.2020 non-constant

Audio #1
ID : 2
Format : AC-3
Format/Info : Audio Coding 3
Commercial name : Dolby Digital
Codec ID : A_AC3
Duration : 3 h 14 min
Bit rate mode : Constant
Bit rate : 448 kb/s
Channel(s) : 6 channels
Channel layout : L R C LFE Ls Rs
Sampling rate : 48.0 kHz
Frame rate : 31.250 FPS (1536 SPF)
Bit depth : 16 bits
Compression mode : Lossy
Delay relative to video : 6 ms
Stream size : 624 MiB (1%)
Title : | Дубльований |
Language : Ukrainian
Service kind : Complete Main
Default : Yes
Forced : No

Audio #2
ID : 3
Format : AC-3
Format/Info : Audio Coding 3
Commercial name : Dolby Digital
Codec ID : A_AC3
Duration : 3 h 14 min
Bit rate mode : Constant
Bit rate : 192 kb/s
Channel(s) : 2 channels
Channel layout : L R
Sampling rate : 48.0 kHz
Frame rate : 31.250 FPS (1536 SPF)
Bit depth : 16 bits
Compression mode : Lossy
Delay relative to video : 6 ms
Stream size : 267 MiB (0%)
Title : | MVO, Новый канал |
Language : Ukrainian
Service kind : Complete Main
Default : No
Forced : No

Audio #3
ID : 4
Format : AC-3
Format/Info : Audio Coding 3
Commercial name : Dolby Digital
Codec ID : A_AC3
Duration : 3 h 14 min
Bit rate mode : Constant
Bit rate : 192 kb/s
Channel(s) : 2 channels
Channel layout : L R
Sampling rate : 48.0 kHz
Frame rate : 31.250 FPS (1536 SPF)
Bit depth : 16 bits
Compression mode : Lossy
Delay relative to video : 6 ms
Stream size : 267 MiB (0%)
Title : | MVO, 1+1 |
Language : Ukrainian
Service kind : Complete Main
Default : No
Forced : No

Audio #4
ID : 5
Format : XLL
Format/Info : Digital Theater Systems
Commercial name : -HD Master Audio
Codec ID : A_DTS
Duration : 3 h 14 min
Bit rate mode : Variable
Bit rate : 3 893 kb/s
Channel(s) : 6 channels
Channel layout : C L R Ls Rs LFE
Sampling rate : 48.0 kHz
Frame rate : 93.750 FPS (512 SPF)
Bit depth : 24 bits
Compression mode : Lossless
Delay relative to video : 6 ms
Stream size : 5.29 GiB (5%)
Title : | Original |
Language : English
Default : No
Forced : No

Audio #5
ID : 6
Format : AC-3
Format/Info : Audio Coding 3
Commercial name : Dolby Digital
Codec ID : A_AC3
Duration : 3 h 14 min
Bit rate mode : Constant
Bit rate : 640 kb/s
Channel(s) : 6 channels
Channel layout : L R C LFE Ls Rs
Sampling rate : 48.0 kHz
Frame rate : 31.250 FPS (1536 SPF)
Bit depth : 16 bits
Compression mode : Lossy
Delay relative to video : 6 ms
Stream size : 891 MiB (1%)
Title : | Audiodescription |
Language : English
Service kind : Complete Main
Default : No
Forced : No

Audio #6
ID : 7
Format : AC-3
Format/Info : Audio Coding 3
Commercial name : Dolby Digital
Codec ID : A_AC3
Duration : 3 h 14 min
Bit rate mode : Constant
Bit rate : 224 kb/s
Channel(s) : 2 channels
Channel layout : L R
Sampling rate : 48.0 kHz
Frame rate : 31.250 FPS (1536 SPF)
Bit depth : 16 bits
Compression mode : Lossy
Delay relative to video : 6 ms
Stream size : 312 MiB (0%)
Title : | Commentary |
Language : English
Service kind : Complete Main
Default : No
Forced : No

Audio #7
ID : 8
Format : AC-3
Format/Info : Audio Coding 3
Commercial name : Dolby Digital
Codec ID : A_AC3
Duration : 3 h 14 min
Bit rate mode : Constant
Bit rate : 224 kb/s
Channel(s) : 2 channels
Channel layout : L R
Sampling rate : 48.0 kHz
Frame rate : 31.250 FPS (1536 SPF)
Bit depth : 16 bits
Compression mode : Lossy
Delay relative to video : 6 ms
Stream size : 312 MiB (0%)
Title : | Commentary |
Language : English
Service kind : Complete Main
Default : No
Forced : No

Audio #8
ID : 9
Format : AC-3
Format/Info : Audio Coding 3
Commercial name : Dolby Digital
Codec ID : A_AC3
Duration : 3 h 14 min
Bit rate mode : Constant
Bit rate : 224 kb/s
Channel(s) : 2 channels
Channel layout : L R
Sampling rate : 48.0 kHz
Frame rate : 31.250 FPS (1536 SPF)
Bit depth : 16 bits
Compression mode : Lossy
Delay relative to video : 6 ms
Stream size : 312 MiB (0%)
Title : | Commentary |
Language : English
Service kind : Complete Main
Default : No
Forced : No

Text #1
ID : 10
Format : UTF-8
Codec ID : S_TEXT/UTF8
Codec ID/Info : UTF-8 Plain Text
Duration : 3 h 4 min
Bit rate : 0 b/s
Count of elements : 7
Stream size : 256 Bytes (0%)
Title : Forced
Language : Ukrainian
Default : No
Forced : Yes

Text #2
ID : 11
Format : UTF-8
Codec ID : S_TEXT/UTF8
Codec ID/Info : UTF-8 Plain Text
Duration : 3 h 12 min
Bit rate : 67 b/s
Count of elements : 1856
Stream size : 95.1 KiB (0%)
Title : Full
Language : Ukrainian
Default : No
Forced : No

Text #3
ID : 12
Format : UTF-8
Codec ID : S_TEXT/UTF8
Codec ID/Info : UTF-8 Plain Text
Duration : 3 h 1 min
Bit rate : 46 b/s
Count of elements : 2103
Stream size : 61.4 KiB (0%)
Title : Full
Language : English
Default : No
Forced : No

Text #4
ID : 13
Format : PGS
Muxing mode : zlib
Codec ID : S_HDMV/PGS
Codec ID/Info : Picture based subtitle format used on BDs/HD-DVDs
Duration : 3 h 1 min
Bit rate : 13.7 kb/s
Count of elements : 4208
Stream size : 17.8 MiB (0%)
Title : PGS ENG
Language : English
Default : No
Forced : No

Text #5
ID : 14
Format : PGS
Muxing mode : zlib
Codec ID : S_HDMV/PGS
Codec ID/Info : Picture based subtitle format used on BDs/HD-DVDs
Duration : 3 h 9 min
Bit rate : 15.7 kb/s
Count of elements : 5208
Stream size : 21.3 MiB (0%)
Title : PGS ENG SDH
Language : English
Default : No
Forced : No

Menu
00:00:00.000 : en:00:00:00.000
00:01:14.366 : en:00:01:24.376
00:04:29.978 : en:00:04:39.988
00:08:16.121 : en:00:08:26.131
00:10:36.761 : en:00:10:46.771
00:12:42.637 : en:00:12:52.647
00:16:42.418 : en:00:16:52.428
00:19:57.738 : en:00:20:07.748
00:23:28.866 : en:00:23:38.876
00:26:16.533 : en:00:26:26.543
00:28:53.356 : en:00:29:03.366
00:29:27.516 : en:00:29:37.526
00:34:49.921 : en:00:34:59.931
00:36:38.613 : en:00:36:48.623
00:42:49.150 : en:00:42:59.160
00:45:16.088 : en:00:45:26.098
00:47:01.610 : en:00:47:11.620
00:53:23.033 : en:00:53:33.043
00:56:37.978 : en:00:56:47.988
01:05:22.043 : en:01:05:32.053
01:10:09.955 : en:01:10:19.965
01:13:56.348 : en:01:14:06.358
01:16:00.681 : en:01:16:10.691
01:19:49.034 : en:01:19:59.044
01:22:40.497 : en:01:22:50.507
01:23:30.046 : en:01:23:40.056
01:28:11.619 : en:01:28:21.629
01:29:09.844 : en:01:29:19.854
01:32:42.265 : en:01:32:52.275
01:36:49.094 : en:01:36:59.104
01:44:31.139 : en:01:44:41.149
01:46:11.031 : en:01:46:21.041
01:47:48.837 : en:01:47:58.847
01:50:01.094 : en:01:50:11.104
01:52:11.391 : en:01:52:21.401
01:53:44.317 : en:01:53:54.327
01:55:11.821 : en:01:55:21.831
01:56:00.870 : en:01:56:10.880
01:57:43.222 : en:01:57:53.232
02:06:28.330 : en:02:06:38.340
02:08:39.962 : en:02:08:49.972
02:11:12.072 : en:02:11:22.082
02:15:32.540 : en:02:15:42.550
02:19:33.448 : en:02:19:43.458
02:21:14.549 : en:02:21:24.559
02:25:18.751 : en:02:25:28.761
02:27:18.412 : en:02:27:28.422
02:28:57.261 : en:02:29:07.271
02:29:46.685 : en:02:29:56.695
02:33:21.525 : en:02:33:31.535
02:36:42.350 : en:02:36:52.360
02:38:23.868 : en:02:38:33.878
02:40:24.656 : en:02:40:34.666
02:44:50.630 : en:02:45:00.640
02:47:38.798 : en:02:47:48.808
02:49:12.516 : en:02:49:22.526
02:51:59.600 : en:02:52:09.610
02:53:31.317 : en:02:53:41.327
02:57:43.485 : en:02:57:53.495
02:59:25.295 : en:02:59:35.305
03:01:19.242 : en:03:01:29.252
03:03:03.638 : en:03:03:13.648
03:04:47.867 : en:03:04:57.877
03:07:09.634 : en:03:07:19.644
Скріншоти










Джерело: &
Особиста оцінка: 10 - без зайвих вагань рекомендую всім!


Золотий реліз (завантажене не впливає на рейтинг)
 Трекер:    Зареєстрований   

Завантажити / скачати фільм українською



відео для новачків



 Зареєстрований:   2019-08-30 00:57
 Розмір:   96.88 GB 
 Оцінка фільму:   9/10 (Голосів: 14)
   
Інші релізи
   Титанік / Titanic (1997) [Open Matte] 1080p H.265 3xUkr/Eng | Sub Ukr/Eng -Star-Lord-  8 / 0   16.21 GB   2020-03-12 01:49 
   Титанік / Titanic (1997) AVC 3xUkr | Sub Ukr/Eng Maters  16 / 0   3.72 GB   2019-11-23 00:47 
   Титанік / Titanic (1997) AVC 3xUkr/Eng | Sub Ukr/Eng Sando7  2 / 1   6.51 GB   2019-02-13 11:41 
   Титанік / Titanic (1997) Remux 1080p 3xUkr/Eng | Sub Ukr/Eng | Open Matte BABELAN  3 / 0   49.12 GB   2019-01-26 11:07 
   Титанік / Titanic (1997) Blu-ray CEE 1080p Eng/Rus/Pol/Ukr | Sub Ukr/Multi (+Bonus Disc) Jatx  2 / 0   92.17 GB   2019-01-04 18:32 
   Титанік / Titanic (1997) mini 1080p H.265 3xUkr/Eng | Sub Ukr/Eng -Star-Lord-  4 / 0   7.87 GB   2018-11-06 11:46 
   Титанік / Titanic (1997) 1080p 3xUkr/Eng | Sub Ukr/Eng ratbol  3 / 0   22.67 GB   2013-04-20 15:03 
   Титанік / Titanic (1997) 720p 3xUkr/Eng | Sub Ukr/Eng ratbol  5 / 0   11.03 GB   2013-04-20 15:00 
   Титанік / Titanic (1997) 3xUkr/Eng | Sub Ukr/Eng karvai0  8 / 0   4.36 GB   2013-04-02 21:01 
bohun 
VIP


З нами з: 21.03.09
Востаннє: 17.01.21
Повідомлень: 361

2019-08-30 23:17  
Хтось може зробити ріп в 4K, але з нормальним (стандартним) кольоровим простором?
KAjFASH 
Новенький


З нами з: 31.07.10
Востаннє: 20.01.21
Повідомлень: 8

2021-01-12 18:55  
@seasky допоможіть докачати титанік - 7% лишилось...
Ваш часовий пояс: GMT + 2 Години

Нова тема   Відповісти