Бої без правил / A Prayer Before Dawn (2017) Remux 1080p Ukr/Eng | Sub Ukr/Eng

Нові коментарі

Нова тема   Відповісти
Автор Повідомлення
IronBee 
Поважний учасник


З нами з: 08.02.10
Востаннє: 19.01.21
Повідомлень: 234

2019-08-29 16:15  
Бої без правил / A Prayer Before Dawn (2017) Remux 1080p Ukr/Eng | Sub Ukr/Eng



Жанр: біографічний, кримінальний, драма, спорт, трилер
Країна: Велика Британія, Франція, Китай, Камбоджа, США



Кінокомпанія: Senorita Films, Indochina Productions, HanWay Films
Режисер: Жан-Стефан Саувар / Jean-Stéphane Sauvaire
Актори: Джо Коул / Joe Cole, Вітайя Пансрінґрам / Vithaya Pansringarm, Порнчанок Мабкланґ / Pornchanok Mabklang, Панья Йїммумпайї / Panya Yimmumphai, Біллі Мур / Billy Moore, Ніколас Шейк / Nicolas Shake, Рекс Басбас / Rex Basbas, Сура Сірмалаї / Sura Sirmalai та інші.

Сюжет:
Біллі Мур (Джо Кол) відправляється до в'язниці у Таїланді, де він б'ється на турнірах з боксу, аби заробити на свою свободу.


Тривалість: 01:56:44
Якість: Remux 1080p
Відео:
кодек:
розмір кадру: 1920 х 1080
бітрейт: 29 Mб/с

Аудіо # 1:
мова: українська
переклад: багатоголосий закадровий | Новий канал
кодек: 2.0
бітрейт: 192 кб/с

Аудіо # 2:
мова: англійська
переклад: оригінал
кодек: -HD MA 5.1
бітрейт: 1834 кб/с

Субтитри # 1:
мова: українська
тип: програмні (м'які)
формат: *.srt
переклад: RockandRolla

Субтитри # 2-3:
мова: англійська (Повні, SDH)
тип: програмні (м'які)
формат: *.srt
Info
General
Unique ID : 27252620996102184084292164782472373961 (0x1480A9F44C4F4ED080D6FEFD10F526C9)
Complete name : D:\Films\Бої без правил A Prayer Before Dawn (2017) Remux 1080p UkrEng Sub UkrEng[Hurtom].
Format :
Format version : Version 4
File size : 25.3 GiB
Duration : 1 h 56 min
Overall bit rate mode : Variable
Overall bit rate : 31.0 Mb/s
Encoded date : UTC 2019-07-17 13:08:40
Writing application : v35.0.0 ('All The Love In The World') 64-bit
Writing library : libebml v1.3.9 + v1.5.2

Video
ID : 1
Format : AVC
Format/Info : Advanced Video Codec
Format profile : [email protected]
Format settings : CABAC / 4 Ref Frames
Format settings, CABAC : Yes
Format settings, ReFrames : 4 frames
Codec ID : V_MPEG4/ISO/AVC
Duration : 1 h 56 min
Bit rate mode : Variable
Bit rate : 29.0 Mb/s
Maximum bit rate : 35.0 Mb/s
Width : 1 920 pixels
Height : 1 080 pixels
Display aspect ratio : 16:9
Frame rate mode : Constant
Frame rate : 23.976 (24000/1001) FPS
Standard : NTSC
Color space : YUV
Chroma subsampling : 4:2:0
Bit depth : 8 bits
Scan type : Progressive
Bits/(Pixel*Frame) : 0.583
Stream size : 23.6 GiB (93%)
Default : Yes
Forced : No
Color range : Limited
Color primaries : BT.709
Transfer characteristics : BT.709
Matrix coefficients : BT.709

Audio #1
ID : 2
Format : AC-3
Format/Info : Audio Coding 3
Commercial name : Dolby Digital
Codec ID : A_AC3
Duration : 1 h 56 min
Bit rate mode : Constant
Bit rate : 192 kb/s
Channel(s) : 2 channels
Channel layout : L R
Sampling rate : 48.0 kHz
Frame rate : 31.250 FPS (1536 SPF)
Bit depth : 16 bits
Compression mode : Lossy
Stream size : 160 MiB (1%)
Title : 2.0 192 кб/с багатоголосий закадровий | Новий Канал
Language : Ukrainian
Service kind : Complete Main
Default : Yes
Forced : No

Audio #2
ID : 3
Format : XLL
Format/Info : Digital Theater Systems
Commercial name : -HD Master Audio
Codec ID : A_DTS
Duration : 1 h 56 min
Bit rate mode : Variable
Bit rate : 1 834 kb/s
Channel(s) : 6 channels
Channel layout : C L R Ls Rs LFE
Sampling rate : 48.0 kHz
Frame rate : 93.750 FPS (512 SPF)
Bit depth : 16 bits
Compression mode : Lossless
Stream size : 1.50 GiB (6%)
Title : Original
Language : English
Default : No
Forced : No

Text #1
ID : 4
Format : UTF-8
Codec ID : S_TEXT/UTF8
Codec ID/Info : UTF-8 Plain Text
Duration : 1 h 50 min
Bit rate : 17 b/s
Count of elements : 373
Stream size : 14.2 KiB (0%)
Language : Ukrainian
Default : Yes
Forced : No

Text #2
ID : 5
Format : UTF-8
Codec ID : S_TEXT/UTF8
Codec ID/Info : UTF-8 Plain Text
Duration : 1 h 48 min
Bit rate : 10 b/s
Count of elements : 376
Stream size : 8.28 KiB (0%)
Title : Full
Language : English
Default : No
Forced : No

Text #3
ID : 6
Format : UTF-8
Codec ID : S_TEXT/UTF8
Codec ID/Info : UTF-8 Plain Text
Duration : 1 h 50 min
Bit rate : 12 b/s
Count of elements : 451
Stream size : 9.88 KiB (0%)
Title : SDH
Language : English
Default : No
Forced : No

Menu
00:00:00.000 : en:Chapter 01
00:09:36.200 : en:Chapter 02
00:18:15.135 : en:Chapter 03
00:27:09.002 : en:Chapter 04
00:37:20.696 : en:Chapter 05
00:48:31.241 : en:Chapter 06
01:01:07.162 : en:Chapter 07
01:10:44.948 : en:Chapter 08
01:21:01.022 : en:Chapter 09
01:34:04.639 : en:Chapter 10
01:44:57.874 : en:Chapter 11
01:53:26.800 : en:Chapter 12
01:56:43.329 : en:Chapter 13
Скріншоти




Над доріжкою працювали: Bohdan237, Sando7. Постер: mrgalser.

Джерело: &
Особиста оцінка: 8 - мені сподобалося


Золотий реліз (завантажене не впливає на рейтинг)
 Трекер:    Зареєстрований   

Завантажити / скачати фільм українською



відео для новачків



 Зареєстрований:   2019-08-29 16:15
 Розмір:   25.3 GB 
 Оцінка фільму:   10/10 (Голосів: 4)
   
Ваш часовий пояс: GMT + 2 Години

Нова тема   Відповісти