Роман із каменем, Перлина Нілу. Дилогія / Romancing the Stone, The Jewel of the Nile. Dilogy (1984-1985) Remux 1080p 2xUkr/Eng | Sub Ukr/Eng

Нові коментарі

Нова тема   Відповісти
Автор Повідомлення
MakRA 
VIP


З нами з: 11.11.18
Востаннє: 24.09.20
Повідомлень: 1120

2019-08-29 11:53  
Роман із каменем, Перлина Нілу. Дилогія / Romancing the Stone, The Jewel of the Nile. Dilogy
(1984-1985) Remux 1080p 2xUkr/Eng | Sub Ukr/Eng


Альтернативні обкладинки:


Жанр: екшн, пригодницький, комедія, романтичний
Країна: США , Мексика
Кінокомпанія: Twentieth Century Fox, El Corazon Producciones S.A., Nina Saxon Film Design, SLM Production Group
Режисер: Роберт Земекіс[Robert Zemeckis] , Льюїс Тіг [Lewis Teague]
Продюсер: Майкл Дуглас [Michael Douglas], Джек Бродський [Jack Brodsky], Джоель Дуглас [Joel Douglas]
Сценарист: Дайан Томас [Diane Thomas], Марк Розенталь [Mark Rosenthal], Лоуренс Коннер [Lawrence Konner]
Композитор: Алан Сільвестрі [Alan Anthony Silvestri], Джек Ніцше [Jack Nitzsche]
Роман із каменем / Romancing the Stone (1984) Remux 1080p 2xUkr/Eng | Sub Ukr/Eng


Роман із каменем / Romancing the Stone (1984) Remux 1080p 2xUkr/Eng | Sub Ukr/Eng



Український постер:

Альтернативна обкладинка:



Актори: Майкл Дуґлас [Michael Douglas], Кетлін Тернер [Kathleen Turner], Дені ДеВіто [Danny DeVito], Зак Норман [Zack Norman], Альфонсо Арау [Alfonso Arau], Мануель Охеда [Manuel Ojeda] .

Сюжет:
Нью-Йорська письменниця Джоан Вайлдер живе у світі власноруч написаних романів, мріючи про зустріч зі справжнім героєм. І такий випадок їй надається. Дізнавшись про викрадення своєї рідної сестри, Джоан відправляється їй на допомогу у далеку і небезпечну Колумбію. Пригоди тільки починаються ...

Цікаве про фільм:

-Американську письменницю, яка написала однойменну книгу за сценарієм фільму звати також як головну героїню фільму — Джоан Вайлдер. Найімовірніше ця жінка була прототипом Джоан Вайлдер з фільму. Вона також написала і роман «Перлина Нілу» за однойменним фільмом.


Нагороди та номінації:

-Номінація на премію Оскар за найкращий монтаж.
-Премія Золотий глобус за Найкращий фільм (комедія) і Найкраща жіноча роль (комедія) (Кетлін Тернер).




Тривалість: 01:45:46
Якість: Remux 1080p [AUS Transfer]
Відео:
кодек:
розмір кадру: 1920 х 1080
бітрейт: 34,6 Mб/с

Аудіо # 1:
мова: українська
переклад: двоголосий закадровий
кодек: 5.1
бітрейт: 448 кб/с
Інформація про озвучення:

Ролі озвучили: Остап Ступка та Лариса Руснак.
Аудіо # 2:
мова: українська
переклад: двоголосий закадровий
кодек: 5.1
бітрейт: 448 кб/с
Інформація про озвучення:

Ролі озвучили: Олег Лепенець і один жіночий голос.
Аудіо # 3:
мова: англійська
переклад: оригінал
кодек: -HD MA 5.1
бітрейт: 3431 кб/с

Субтитри # 1: (Full)
мова: українська
тип: пререндерні
формат: *.pgs

Субтитри # 2: (SDH)
мова: англійська
тип: пререндерні
формат: *.pgs
Info
General
Unique ID : 169934398769396014286798701813850167486 (0x7FD82CBA433B77A78A876D5E0A77D8BE)
Complete name : F:\Пригодницькі\Romancing the Stone & The Jewel of the Nile. Dilogy (1984,1985) Remux 1080p 2xUkrEng Sub UkrEng [Hurtom]\Romancing the Stone (1984) Remux 1080p 2xUkrEng Sub UkrEng [Hurtom].
Format :
Format version : Version 4
File size : 28.8 GiB
Duration : 1 h 45 min
Overall bit rate mode : Variable
Overall bit rate : 39.0 Mb/s
Movie name : Роман із каменем / Romancing the Stone (1984) Remux 1080p 2xUkrEng Sub UkrEng [Hurtom]
Encoded date : UTC 2019-08-28 22:43:39
Writing application : v25.0.0 ('Prog Noir') 64-bit
Writing library : libebml v1.3.6 + v1.4.9
Cover : Yes
Attachments : cover.jpg.jpeg

Video
ID : 1
Format : AVC
Format/Info : Advanced Video Codec
Format profile : [email protected]
Format settings : CABAC / 4 Ref Frames
Format settings, CABAC : Yes
Format settings, Reference fra : 4 frames
Codec ID : V_MPEG4/ISO/AVC
Duration : 1 h 45 min
Bit rate mode : Variable
Bit rate : 34.6 Mb/s
Maximum bit rate : 36.0 Mb/s
Width : 1 920 pixels
Height : 1 080 pixels
Display aspect ratio : 16:9
Frame rate mode : Constant
Frame rate : 23.976 (24000/1001) FPS
Color space : YUV
Chroma subsampling : 4:2:0
Bit depth : 8 bits
Scan type : Progressive
Bits/(Pixel*Frame) : 0.696
Stream size : 25.6 GiB (89%)
Title : Romancing the Stone (1984) Remux 1080p 2xUkrEng Sub UkrEng [Hurtom]
Language : Ukrainian
Default : Yes
Forced : Yes
Color range : Limited
Color primaries : BT.709
Transfer characteristics : BT.709
Matrix coefficients : BT.709

Audio #1
ID : 2
Format : AC-3
Format/Info : Audio Coding 3
Commercial name : Dolby Digital
Codec ID : A_AC3
Duration : 1 h 45 min
Bit rate mode : Constant
Bit rate : 448 kb/s
Channel(s) : 6 channels
Channel layout : L R C LFE Ls Rs
Sampling rate : 48.0 kHz
Frame rate : 31.250 FPS (1536 SPF)
Bit depth : 16 bits
Compression mode : Lossy
Stream size : 339 MiB (1%)
Title : DVO [1+1] 5.1
Language : Ukrainian
Service kind : Complete Main
Default : Yes
Forced : Yes

Audio #2
ID : 3
Format : AC-3
Format/Info : Audio Coding 3
Commercial name : Dolby Digital
Codec ID : A_AC3
Duration : 1 h 45 min
Bit rate mode : Constant
Bit rate : 448 kb/s
Channel(s) : 6 channels
Channel layout : L R C LFE Ls Rs
Sampling rate : 48.0 kHz
Frame rate : 31.250 FPS (1536 SPF)
Bit depth : 16 bits
Compression mode : Lossy
Stream size : 339 MiB (1%)
Title : DVO [НОВИЙ] 5.1
Language : Ukrainian
Service kind : Complete Main
Default : No
Forced : No

Audio #3
ID : 4
Format : XLL
Format/Info : Digital Theater Systems
Commercial name : -HD Master Audio
Codec ID : A_DTS
Duration : 1 h 45 min
Bit rate mode : Variable
Bit rate : 3 431 kb/s
Channel(s) : 6 channels
Channel layout : C L R Ls Rs LFE
Sampling rate : 48.0 kHz
Frame rate : 93.750 FPS (512 SPF)
Bit depth : 24 bits
Compression mode : Lossless
Stream size : 2.53 GiB (9%)
Title : Original -HD MA 5.1
Language : English
Default : No
Forced : No

Text #1
ID : 5
Format : PGS
Muxing mode : zlib
Codec ID : S_HDMV/PGS
Codec ID/Info : Picture based subtitle format used on BDs/HD-DVDs
Duration : 1 h 45 min
Bit rate : 22.5 kb/s
Count of elements : 1682
Stream size : 17.0 MiB (0%)
Title : Ukr (Full)
Language : Ukrainian
Default : No
Forced : No

Text #2
ID : 6
Format : PGS
Muxing mode : zlib
Codec ID : S_HDMV/PGS
Codec ID/Info : Picture based subtitle format used on BDs/HD-DVDs
Duration : 1 h 41 min
Bit rate : 44.1 kb/s
Count of elements : 2172
Stream size : 32.1 MiB (0%)
Title : Eng (SDH)
Language : English
Default : No
Forced : No
Скріншоти
Перлина Нілу / The Jewel of the Nile (1985) Remux 1080p 2xUkr/Eng | Sub Ukr/Eng


Перлина Нілу / The Jewel of the Nile (1985) Remux 1080p 2xUkr/Eng | Sub Ukr/Eng



Український постер:

Альтернативна обкладинка:



Актори: Майкл Дуґлас [Michael Douglas], Кетлін Тернер [Kathleen Turner], Дені ДеВіто [Danny DeVito], Спірос Фокас [Spiros Focas], Евнер Айзенберг [Avner Eisenberg], Пол Девід Маджид [Paul David Magid] .

Сюжет:
Продовження картини «Роман з Каменем». Джек Колтон і Джоан Вайлдер живуть на яхті спокійним, розміреним життям. Але авантюрні характери обох не дають їм довго насолоджуватися відпочинком. Щоб розважитися, Джоан приймає пропозицію арабського шейха відвідати його східну резиденцію і написати його біографію. Але люб'язне запрошення обертається викраденням Джоан, а яхту Джека підривають люди шейха. Джек відправляється визволяти Джоан ...



Тривалість: 01:45:46
Якість: Remux 1080p [AUS Transfer]
Відео:
кодек:
розмір кадру: 1920 х 1080
бітрейт: 35,3 Mб/с

Аудіо # 1:
мова: українська
переклад: двоголосий закадровий
кодек: 5.1
бітрейт: 448 кб/с
Інформація про озвучення:

Ролі озвучили: Остап Ступка та Лариса Руснак.
Аудіо # 2:
мова: українська
переклад: двоголосий закадровий
кодек: 5.1
бітрейт: 448 кб/с
Інформація про озвучення:

Ролі озвучили: Михайло Жонін і один жіночий голос.
Аудіо # 3:
мова: англійська
переклад: оригінал
кодек: -HD MA 5.1
бітрейт: 4256 кб/с

Аудіо # 4:
мова: англійська
переклад: коментарі режисера Льюїса Тіга
кодек: 2.0
бітрейт: 192 кб/с

Субтитри # 1: (Full)
мова: українська
тип: пререндерні
формат: *.pgs

Субтитри # 2: (SDH)
мова: англійська
тип: пререндерні
формат: *.pgs
Info
General
Unique ID : 241342862221416971140957566563895734263 (0xB590F1CC2B7CA6D1A9692C63C55BEFF7)
Complete name : F:\Пригодницькі\Romancing the Stone & The Jewel of the Nile. Dilogy (1984,1985) Remux 1080p 2xUkrEng Sub UkrEng [Hurtom]\The Jewel of the Nile (1985) Remux 1080p 2xUkrEng Sub UkrEng [Hurtom].
Format :
Format version : Version 4
File size : 30.1 GiB
Duration : 1 h 45 min
Overall bit rate mode : Variable
Overall bit rate : 40.7 Mb/s
Movie name : Перлина Нілу / The Jewel of the Nile (1985) Remux 1080p 2xUkrEng Sub UkrEng [Hurtom]
Encoded date : UTC 2019-08-28 23:43:06
Writing application : v25.0.0 ('Prog Noir') 64-bit
Writing library : libebml v1.3.6 + v1.4.9
Cover : Yes
Attachments : cover.jpg.jpg

Video
ID : 1
Format : AVC
Format/Info : Advanced Video Codec
Format profile : [email protected]
Format settings : CABAC / 3 Ref Frames
Format settings, CABAC : Yes
Format settings, Reference fra : 3 frames
Format settings, GOP : M=3, N=24
Codec ID : V_MPEG4/ISO/AVC
Duration : 1 h 45 min
Bit rate : 35.3 Mb/s
Width : 1 920 pixels
Height : 1 080 pixels
Display aspect ratio : 16:9
Frame rate mode : Constant
Frame rate : 23.976 (24000/1001) FPS
Color space : YUV
Chroma subsampling : 4:2:0
Bit depth : 8 bits
Scan type : Progressive
Bits/(Pixel*Frame) : 0.710
Stream size : 26.1 GiB (87%)
Title : The Jewel of the Nile (1985) Remux 1080p 2xUkrEng Sub UkrEng [Hurtom]
Language : Ukrainian
Default : Yes
Forced : Yes

Audio #1
ID : 2
Format : AC-3
Format/Info : Audio Coding 3
Commercial name : Dolby Digital
Codec ID : A_AC3
Duration : 1 h 45 min
Bit rate mode : Constant
Bit rate : 448 kb/s
Channel(s) : 6 channels
Channel layout : L R C LFE Ls Rs
Sampling rate : 48.0 kHz
Frame rate : 31.250 FPS (1536 SPF)
Bit depth : 16 bits
Compression mode : Lossy
Stream size : 339 MiB (1%)
Title : DVO [1+1] 5.1
Language : Ukrainian
Service kind : Complete Main
Default : Yes
Forced : Yes

Audio #2
ID : 3
Format : AC-3
Format/Info : Audio Coding 3
Commercial name : Dolby Digital
Codec ID : A_AC3
Duration : 1 h 45 min
Bit rate mode : Constant
Bit rate : 448 kb/s
Channel(s) : 6 channels
Channel layout : L R C LFE Ls Rs
Sampling rate : 48.0 kHz
Frame rate : 31.250 FPS (1536 SPF)
Bit depth : 16 bits
Compression mode : Lossy
Stream size : 339 MiB (1%)
Title : DVO [НОВИЙ] 5.1
Language : Ukrainian
Service kind : Complete Main
Default : No
Forced : No

Audio #3
ID : 4
Format : XLL
Format/Info : Digital Theater Systems
Commercial name : -HD Master Audio
Codec ID : A_DTS
Duration : 1 h 45 min
Bit rate mode : Variable
Bit rate : 4 256 kb/s
Channel(s) : 6 channels
Channel layout : C L R Ls Rs LFE
Sampling rate : 48.0 kHz
Frame rate : 93.750 FPS (512 SPF)
Bit depth : 24 bits
Compression mode : Lossless
Stream size : 3.15 GiB (10%)
Title : Original -HD MA 5.1
Language : English
Default : No
Forced : No

Audio #4
ID : 5
Format : AC-3
Format/Info : Audio Coding 3
Commercial name : Dolby Digital
Codec ID : A_AC3
Duration : 1 h 45 min
Bit rate mode : Constant
Bit rate : 224 kb/s
Channel(s) : 2 channels
Channel layout : L R
Sampling rate : 48.0 kHz
Frame rate : 31.250 FPS (1536 SPF)
Bit depth : 16 bits
Compression mode : Lossy
Stream size : 170 MiB (1%)
Title : Original 2.0 | Commentary by director Lewis Teague
Language : English
Service kind : Complete Main
Default : No
Forced : No

Text #1
ID : 6
Format : PGS
Muxing mode : zlib
Codec ID : S_HDMV/PGS
Codec ID/Info : Picture based subtitle format used on BDs/HD-DVDs
Duration : 1 h 45 min
Bit rate : 28.2 kb/s
Count of elements : 1590
Stream size : 21.3 MiB (0%)
Title : Ukr (Full)
Language : Ukrainian
Default : No
Forced : No

Text #2
ID : 7
Format : PGS
Muxing mode : zlib
Codec ID : S_HDMV/PGS
Codec ID/Info : Picture based subtitle format used on BDs/HD-DVDs
Duration : 1 h 45 min
Bit rate : 51.8 kb/s
Count of elements : 2418
Stream size : 39.0 MiB (0%)
Title : Eng (SDH)
Language : English
Default : No
Forced : No
Скріншоти
Джерело: &

Велика подяка п. Karvai за звукозапис, п. Lan за синхронізацію та створення доріжок з перекладом Нового каналу, п. _oles за синхронізацію та створення доріжок з перекладом від 1+1, п. realNitro за українізацію постерів, w2958l за редагування субтитрів.
Особиста оцінка: 10 - без зайвих вагань рекомендую всім!


Золотий реліз (завантажене не впливає на рейтинг)
 Трекер:    Зареєстрований   

Завантажити / скачати фільм українською



відео для новачків



 Зареєстрований:   2019-08-29 11:53
 Розмір:   58.89 GB 
 Оцінка фільму:   10/10 (Голосів: 13)
   
Ваш часовий пояс: GMT + 2 Години

Нова тема   Відповісти