Ніч, в яку ми ніколи не зустрінемося / The Night We Never Met (1993)

Нові коментарі

Нова тема   Відповісти
Автор Повідомлення
Anonymous 







2019-08-28 14:27  
Ніч, в яку ми ніколи не зустрінемося / The Night We Never Met (1993)

Ніч, в яку ми ніколи не зустрінемося / The Night We Never Met (1993)


Жанр: мелодрама, комедія
Країна: США



Кінокомпанія: Miramax
Режисер: Воррен Лейт / Warren Leight
Актори: Метью Бродерік / Matthew Broderick, Аннабелла Шиорра / Annabella Sciorra, Тім Гіні / Tim Guinee, Кевін Андерсон / Kevin Anderson, Джинн Тріплгорн / Jeanne Tripplehorn, Джастін Бейтман / Justine Bateman та інші

Сюжет:
Сем постійно конфліктує зі своїми сусідами по квартирі, які, на його думку, не мають ніякого поняття про право на особисте життя і навіть про просту гігієну. У таких жахливих умовах він погоджується проводити дві ночі в тиждень в іншій квартирі, в якій також відведені ночі проводять молодий господар квартири на ім'я Брайан, вельми неприємний у спілкуванні, і Еллен, яка мріє про кар'єру художника і намагається звільнитися від уже порядком набридлого шлюбу. Все йде своєю чергою, поки Сем і Брайан не змінюють своїми плани, не повідомивши про це Еллен, яка, помітивши всякі поліпшення в навколишній обстановці, приписує їх Брайану, а зовсім не доброму та відповідального Сему.


Рейтинг MPAA: R - особам до 17 років обов'язкова присутність батьків або дорослого опікуна
Вікова категорія: 14+

Тривалість: 01:38:20
Якість:
Відео:
кодек:
розмір кадру: 720 х 400
бітрейт: 1911 кб/с

Аудіо:
мова: українська
переклад: багатоголосий закадровий
кодек: 2.0
бітрейт: 192 кб/с
Info
Код:
General
Complete name               : The Night We Never Met (1993) [Ukr] [Hurtom].avi
Format                      : AVI
Format/Info                 : Audio Video Interleave
File size                   : 1.45 GiB
Duration                    : 1 h 38 min
Overall bit rate            : 2 112 kb/s
Movie name                  : Ніч, в яку ми ніколи не зустрінемося / The Night We Never Met (1993) [Ukr] [Hurtom]
Writing application         : VirtualDubModUkr 1.5.10.2 (build 2542/release)
Writing library             : VirtualDubMod build 2542/release

Video
ID                          : 0
Format                      : MPEG-4 Visual
Format profile              : Advanced [email protected]
Format settings             : BVOP1 / Custom Matrix
Format settings, BVOP       : 1
Format settings, QPel       : No
Format settings, GMC        : No warppoints
Format settings, Matrix     : Custom
Codec ID                    :
Codec ID/Hint               :
Duration                    : 1 h 38 min
Bit rate                    : 1 911 kb/s
Width                       : 720 pixels
Height                      : 400 pixels
Display aspect ratio        : 16:9
Frame rate                  : 23.976 (24000/1001) FPS
Color space                 : YUV
Chroma subsampling          : 4:2:0
Bit depth                   : 8 bits
Scan type                   : Progressive
Compression mode            : Lossy
Bits/(Pixel*Frame)          : 0.277
Stream size                 : 1.31 GiB (90%)
Writing library             : 1.2.1 (UTC 2008-12-04)

Audio
ID                          : 1
Format                      : AC-3
Format/Info                 : Audio Coding 3
Commercial name             : Dolby Digital
Codec ID                    : 2000
Duration                    : 1 h 38 min
Bit rate mode               : Constant
Bit rate                    : 192 kb/s
Channel(s)                  : 2 channels
Channel layout              : L R
Sampling rate               : 48.0 kHz
Frame rate                  : 31.250 FPS (1536 SPF)
Bit depth                   : 16 bits
Compression mode            : Lossy
Stream size                 : 135 MiB (9%)
Alignment                   : Split across interleaves
Interleave, duration        : 42  ms (1.00 video frame)
Interleave, preload duratio : 500  ms
Title                       : MVO [AMC]
Service kind                : Complete Main



Джерело: &
Подяка п.kryk-v.ya. за українську доріжку.


Срібний реліз (на рейтинг впливає 50% завантаженого)
 Трекер:    Зареєстрований   

Завантажити / скачати фільм українською



відео для новачків



 Зареєстрований:   2019-08-30 10:21
 Розмір:   1.45 GB 
 Оцінка фільму:   8.9/10 (Голосів: 7)
 ЗАЛИШАЙТЕСЬ ЯКОМОГА ДОВШЕ НА РОЗДАЧІ! ЗАВАНТАЖИВ САМ - ДАЙ ЗАВАНТАЖИТИ ІНШИМ!
   
bot 
робот


З нами з: 30.09.07
Востаннє: 26.05.05
Повідомлень: 22318

2019-08-30 10:21  
Тему перенесено з Анонси релізів до форуму Фільми


igor911

Ваш часовий пояс: GMT + 2 Години

Нова тема   Відповісти