Творчий вечір Сергія Жадана. «Цитатник». (24.08.2019) -AVC

Нові коментарі

Нова тема   Відповісти
Автор Повідомлення
Anonymous 







2019-08-27 00:42  
Творчий вечір Сергія Жадана. «Цитатник». (24.08.2019) -AVC


Жанр: концерт
Країна: Україна

Телеканал: UA: Культура
Режисер: Ярослав Лодигін
Актори: Сергій Жадан, Олег Каданов, Ада Роговцева, Ірма Вітовська, Лариса Руснак, Катерина Степанкова і Тетяна Міхіна

Опис:
23 серпня 2019 року в Києві, в МЦКМ (Жовтневий палац), відбувся великий творчий вечір харківського поета Сергія Жадана. Під час вечора пролунали як нові, так і давно всім відомі та улюблені вірші.

Тривалість: 2:17:03

Якість: IPTV-AVC
Відео:
кодек:
розмір кадру: 1024 х 576
бітрейт: ~1760 кб/с

Аудіо # 1:
мова: українська
кодек: 2.0
бітрейт: 132 кб/с
Info
General
Unique ID : 324728427364629872528678046335418645090 (0xF44C6B9296F7E46B460688F378223A62)
Complete name : F:\Serhiy.Zhadan.Tsytatnyk.24.08.2019..
Format :
Format version : Version 4 / Version 2
File size : 1.81 GiB
Duration : 2 h 17 min
Overall bit rate : 1 892 kb/s
Encoded date : UTC 2020-04-17 11:56:02
Writing application : v31.0.0 ('Dolores In A Shoestand') 64-bit
Writing library : libebml v1.3.6 + v1.4.9

Video
ID : 1
Format : AVC
Format/Info : Advanced Video Codec
Format profile : [email protected]
Format settings : 2 Ref Frames
Format settings, CABAC : No
Format settings, ReFrames : 2 frames
Codec ID : V_MPEG4/ISO/AVC
Duration : 2 h 17 min
Bit rate : 1 760 kb/s
Width : 1 024 pixels
Height : 576 pixels
Display aspect ratio : 16:9
Frame rate mode : Constant
Frame rate : 25.000 FPS
Color space : YUV
Chroma subsampling : 4:2:0
Bit depth : 8 bits
Scan type : Progressive
Bits/(Pixel*Frame) : 0.119
Stream size : 1.68 GiB (93%)
Language : Ukrainian
Default : Yes
Forced : No

Audio
ID : 2
Format :
Format/Info : Advanced Audio Codec
Format profile : LC
Codec ID : A_AAC-2
Duration : 2 h 17 min
Bit rate : 132 kb/s
Channel(s) : 2 channels
Channel positions : Front: L R
Sampling rate : 44.1 kHz
Frame rate : 43.066 FPS (1024 SPF)
Compression mode : Lossy
Stream size : 128 MiB (7%)
Language : Ukrainian
Default : Yes
Forced : No
Скріншоти:
Джерело:
Особиста оцінка: 10 - без зайвих вагань рекомендую всім!


Золотий реліз (завантажене не впливає на рейтинг)
 Трекер:    Зареєстрований   

Завантажити / скачати передачу українською



відео для новачків



 Зареєстрований:   2020-04-17 14:04
 Розмір:   1.81 GB 
 Оцінка передачі:   9/10 (Голосів: 9)
   
Anonymous 







2019-08-27 00:43  
Якщо хтось має більш якісний сирець (може писав для себе, чи раптово записав) з радістю прийму в дар і зроблю більш якісний ріп. Не хотілося б, щоб така перлина пропала, тому маємо те що маємо, себто
Форкуш 
VIP


З нами з: 03.02.10
Востаннє: 03.12.20
Повідомлень: 2887

2019-08-27 09:42  
Вах! Це чудово, що хтось виставив таке.
П.с. Переглянув. Тааа, не те вже мистецтво. Коли актори не можуть вивчити тексту, а читають з листочка - це вже геть не те мистецтво. Ну і Жадан, колись, читав всі вірші на пам’ять. Час вже не той...

hetzendorf 
Попереджень: 2
Попереджень: 2 


З нами з: 23.07.15
Востаннє: 03.12.20
Повідомлень: 2941

2019-08-27 15:55  
То виявляється цей наркоман ще й віршики пише?


Сподіваюся, глядачам своїм він там щедро відсипав? ^__^

schubin 
Новенький


З нами з: 06.02.17
Востаннє: 02.12.20
Повідомлень: 13

2019-08-28 20:57  
Дякуємо! Були там усією родиною, цей вечір досі з нами.
papa_noel 
Новенький


З нами з: 02.04.14
Востаннє: 29.11.20
Повідомлень: 1

2019-12-29 09:41  
hetzendorf
Незнання сучасної української культури не звільняє від відповідальності :-) Почитайте щось новеньке - є шанс відкрити для себе багато чого ціннісного - на щастя маємо багато гарних авторів.

Anonymous 







2020-04-17 14:05  
Записував презентацію "Списка Кораблів" (викладу найближчим часом) і так вже трапилось, що записалась і в більш гарній якості версія "Цитатника", тож цей реліз оновлено.
Ваш часовий пояс: GMT + 2 Години

Нова тема   Відповісти