Елена з Авалору / Elena of Avalor (Сезон 2) (2018) 1080p Ukr/Eng

Нові коментарі

Нова тема   Відповісти
Автор Повідомлення
sergiyko.5 
Забанено
Забанено


З нами з: 25.02.16
Востаннє: 29.10.20
Повідомлень: 3648

2019-08-26 17:09  
Елена з Авалору / Elena of Avalor (Сезон 2) (2018) 1080p Ukr/Eng

Елена з Авалору / Elena of Avalor (Сезон 2) (2018) 1080p Ukr/Eng

Жанр: пригоди, музичний, фентезі
Країна: США
Кінокомпанія: Walt Disney Television Animation
Режисер: Еліот М. Бур, Роб Претт, Нейтан Чю.

Сюжет:
Дуже давно зла чаклунка Шуріке вбила батьків принцеси Елени та захопила владу в її королівстві Авалорі. Придворний маг Алаказар допоміг дівчині та її родичам врятуватися. Але вони на довгі роки стали в'язнями амулету і нічого не могли із цим вдіяти. Для того, щоб зняти чари, Алаказар вирушив у небезпечну подорож, яка затягнулася аж на 41 рік. Та нарешті настав той щасливий день, коли Елену звільнили із амулета. І це стало початком нових пригод.




Тривалість: 1 серія: 22:25 (цілком серій: 24 з 24)
Якість:

Відео: кодек: розмір кадру: 1920 х 1080 бітрейт: 5000 кб/с
Аудіо 1: мова: українська переклад: професійний дубльований кодек: 2.0 бітрейт: 192 кб/с
Озвучення:
Аудіо 2: мова: англійська переклад: оригінал кодек: 2.0 бітрейт: 224 кб/с
Перелік серій
01 The Jewel of Maru
02 Royal Rivalry
03 The Curse of El Guapo04. The Curse of El Guapo
05. A Spy in the Palace
06. Science Unfair
07. Rise of the Sorceress
08. Shapeshifters
09. The Scepter of Night
10. The Race for the Realm
11.A Tale of Two Scepters
12. Class Act
13. All Kingdoms Fair
14. A Lava Story
15. Song of the Sirenas
16. The Tides of Change
17. The Return of El Capitan
18. Finding Zuzo
19. Snow Place Like Home
20. Two Left Fins
21. Movin' on Up
22. Not Without My Magic
23. Luna's Big Leap
24. Naomi Knows Best
Про файл:
General
Unique ID : 266933895540096152552903640554644183642 (0xC8D1992784D6A339EA3EB2C696D41A5A)
Complete name : D:\Documents\Torrents\MULTSER\Elena of Avalor S02 1080p \S02E01.The Jewel of Maru.1080p..
Format :
Format version : Version 4
File size : 843 MiB
Duration : 22 min 33 s
Overall bit rate : 5 227 kb/s
Movie name : Elena of Avalor S02 1080p by sergiyko
Encoded date : UTC 2019-08-26 14:05:06
Writing application : v36.0.0 ('Is That Jazz?') 64-bit
Writing library : libebml v1.3.9 + v1.5.2

Video
ID : 1
Format : AVC
Format/Info : Advanced Video Codec
Format profile : [email protected]
Format settings : CABAC / 2 Ref Frames
Format settings, CABAC : Yes
Format settings, Reference : 2 frames
Codec ID : V_MPEG4/ISO/AVC
Duration : 22 min 33 s
Bit rate : 4 920 kb/s
Width : 1 920 pixels
Height : 1 080 pixels
Display aspect ratio : 16:9
Frame rate mode : Constant
Frame rate : 23.976 (24000/1001) FPS
Original frame rate : 24.000 FPS
Color space : YUV
Chroma subsampling : 4:2:0
Bit depth : 8 bits
Scan type : Progressive
Bits/(Pixel*Frame) : 0.099
Stream size : 792 MiB (94%)
Title : S02E01.The Jewel of Maru
Writing library : core 148 r2579M 73ae2d1
Encoding settings : cabac=1 / ref=2 / deblock=1:0:0 / analyse=0x3:0x113 / me=hex / subme=2 / psy=1 / psy_rd=1.00:0.00 / mixed_ref=0 / me_range=16 / chroma_me=1 / trellis=0 / 8x8dct=1 / cqm=0 / deadzone=21,11 / fast_pskip=1 / chroma_qp_offset=0 / threads=4 / lookahead_threads=1 / sliced_threads=0 / nr=250 / decimate=1 / interlaced=0 / bluray_compat=0 / stitchable=1 / constrained_intra=0 / bframes=0 / weightp=1 / keyint=250 / keyint_min=24 / scenecut=40 / intra_refresh=0 / rc_lookahead=10 / rc=2pass / mbtree=1 / bitrate=4920 / ratetol=1.0 / qcomp=0.60 / qpmin=5 / qpmax=69 / qpstep=4 / cplxblur=20.0 / qblur=0.5 / ip_ratio=1.40 / aq=1:1.00
Language : English
Default : Yes
Forced : No

Audio #1
ID : 2
Format : AC-3
Format/Info : Audio Coding 3
Commercial name : Dolby Digital
Codec ID : A_AC3
Duration : 22 min 33 s
Bit rate mode : Constant
Bit rate : 192 kb/s
Channel(s) : 2 channels
Channel layout : L R
Sampling rate : 48.0 kHz
Frame rate : 31.250 FPS (1536 SPF)
Bit depth : 16 bits
Compression mode : Lossy
Stream size : 31.0 MiB (4%)
Title : DUB | ПлюсПлюс
Language : Ukrainian
Service kind : Complete Main
Default : Yes
Forced : Yes

Audio #2
ID : 3
Format : LC SBR
Format/Info : Advanced Audio Codec Low Complexity with Spectral Band Replication
Commercial name : HE-
Format settings : Implicit
Codec ID : A_AAC-2
Duration : 22 min 33 s
Bit rate : 127 kb/s
Channel(s) : 2 channels
Channel layout : L R
Sampling rate : 48.0 kHz
Frame rate : 23.438 FPS (2048 SPF)
Compression mode : Lossy
Stream size : 20.4 MiB (2%)
Title : Original
Language : English
Default : No
Forced : No
Скріншоти:


Автор запису/зведення: sergiyko


Бронзовий реліз (на рейтинг впливає 75% завантаженого)
 Трекер:    Зареєстрований   

Завантажити / скачати мультфільм українською



відео для новачків



 Зареєстрований:   2019-09-27 14:19
 Розмір:   21.26 GB 
 Оцінка мультсеріалу:   8.7/10 (Голосів: 9)
   
sergiyko.5 
Забанено
Забанено


З нами з: 25.02.16
Востаннє: 29.10.20
Повідомлень: 3648

2019-09-27 14:20  
Додав 4-24 серії. Сезон повний. Приємного перегляду!
Ваш часовий пояс: GMT + 2 Години

Нова тема   Відповісти