Стартрек: За межами Всесвіту / Star Trek Beyond (2016) Remux 4K 2160p HDR H.265 Ukr/Eng | Sub Ukr/Eng

Нові коментарі

Нова тема   Відповісти
Автор Повідомлення
sickbrain 
Новенький


З нами з: 29.07.16
Востаннє: 18.10.19
Повідомлень: 5

2019-08-26 13:04  
Стартрек: За межами Всесвіту / Star Trek Beyond (2016) Remux 4K 2160p HDR H.265 Ukr/Eng | Sub Ukr/Eng

Стартрек: За межами Всесвіту / Star Trek Beyond (2016) Remux 4K 2160p HDR H.265 Ukr/Eng | Sub Ukr/Eng


Жанр: екшн, пригодницький, трилер, бойовик
Країна: США



Кінокомпанія: Paramount Pictures, Skydance Productions, Alibaba Pictures Group, Huahua Media, Bad Robot, Sneaky Shark, Perfect Storm Entertainment
Режисер: Джастін Лін / Justin Lin
Актори: Кріс Пайн / Chris Pine, Закарі Квінто / Zachary Quinto, Саймон Пегг / Simon Pegg, Карл Урбан / Karl Urban, Зоі Салдана / Zoe Saldana, Ідріс Ельба / Idris Elba, Софія Бутелла / Sofia Boutella, Джон Чо / John Cho, Шоре Агдашлу / Shohreh Aghdashloo та інші

Сюжет:
Від режисера "Форсажу" та популярного серіалу "Справжній детектив" Джастіна Ліна, а також продюсера "Вулиця Монстро, 10" і "Місія неможлива: Нація ізгоїв" Джей Джей Абрамса. Продовження фантастичних пригод екіпажу зоряного корабля "Ентерпрайз" на чолі з капітаном Т. Кірком. Під час місії на незвідану територію зоряне судно і команда були атаковані невідомими прибульцями. Їм довелося покинути "Ентерпрайз" і висадитися на планету, де немає ні зв'язку, ні засобів порятунку. Поки капітан Кірк намагається зібрати весь свій екіпаж і придумати як їм повернутися на Землю, на горизонті з'являється новий ворог.


Тривалість: 02:02:22
Якість: UltraHD Remux 4K 2160p

Відео:
кодек: H.265 (HEVC)
розмір кадру: 3840x2160
бітрейт: 55 Мб/с
бітова глибина: 10 біт
кольоровий простір: BT.2020 (HDR)
примітка: Фільм було відрендерено в 2k, а потім видавці зробили апскейл до 4k

Аудіо # 1:
мова: українська
переклад: професійний дубльований | студія LeDoyen
кодек: 5.1
бітрейт: 448 кб/с
Інформація про дубляж
Перекладач та автор синхронного тексту: Федір Сидорук
Режисер дубляжу: Костянтин Лінартович
Ролі дублювали:
Маркус - Валерій Легін,
Боунз - Борислав Борисенко,
Чехов (Антон Єльчін) - Андрій Федінчик,
Гаррісон/Хан - Андрій Мостренко,
Кірк (Кріс Пайн) - Іван Розін,
Пайк - Володимир Жогло,
Скотті (Саймон Пегг) - Дмитро Завадський,
Спок (Закарі Квінто) - Юрій Кудрявець,
Сулу (Джон Чо) - Дмитро Чернов,
Ухура (Зоі Салдана) - Анастасія Чумаченко
а також: Людмила Барбір, Іван Марченко, Анатолій Барчук, Андрій Мктрчан, Катерина Башкіна-Зленко, Кирило Нікітенко, Олена Борозенець, Олександр Пономаренко, Катерина Брайковська, Ганна Соболєва, Олексій Череватенко, Сергій Солопай, Роман Чорний, Юрій Сосков, В'ячеслав Дудко, Дмитро Сова, Олександр Герасимчук, Петро Сова, Катерина Качан, Анна Суздаль-Сагайдачна, Катерина Кістень, Ігор Тимошенко, Михайло Кришталь, Михайло Жонін, Костянтин Лінартович.

Фільм дубльовано студією LeDoyen.

Аудіо # 2:
мова: англійська
переклад: оригінал
кодек: Dolby TrueHD + Dolby Atmos
бітрейт: 4367 кб/с

Аудіо # 3:
мова: англійська
переклад: оригінал
кодек: 5.1
бітрейт: 1509 кб/с

Субтитри # 1-2:
мова: українська (форсовані, повні)
тип: програмні (м'які)

Субтитри # 3-5:
мова: англійська(повні, SDH, форсовані)
тип: програмні (м'які)
Info
General
Unique ID : 184141642208468638206657343713554690725 (0x8A8863E8FBB98B41C21E63AEC6FB72A5)
Complete name : E:\Torrent\Star Trek Beyond BDRemux2160p[Hurtom].
Format :
Format version : Version 4
File size : 52.5 GiB
Duration : 2 h 2 min
Overall bit rate mode : Variable
Overall bit rate : 61.4 Mb/s
Encoded date : UTC 2019-08-27 12:16:07
Writing application : v37.0.0 ('Leave It') 64-bit
Writing library : libebml v1.3.9 + v1.5.2
Cover : Yes
Attachments : cover

Video
ID : 1
Format : HEVC
Format/Info : High Efficiency Video Coding
Format profile : Main [email protected]@High
HDR format : SMPTE ST 2086, HDR10 compatible
Codec ID : V_MPEGH/ISO/HEVC
Duration : 2 h 2 min
Bit rate : 55.0 Mb/s
Width : 3 840 pixels
Height : 2 160 pixels
Display aspect ratio : 16:9
Frame rate mode : Constant
Frame rate : 23.976 (24000/1001) FPS
Color space : YUV
Chroma subsampling : 4:2:0 (Type 2)
Bit depth : 10 bits
Bits/(Pixel*Frame) : 0.277
Stream size : 47.0 GiB (90%)
Writing library : ATEME Titan File 3.7.6 (4.7.6.101)
Default : Yes
Forced : No
Color range : Limited
Color primaries : BT.2020
Transfer characteristics : PQ
Matrix coefficients : BT.2020 non-constant
Mastering display color primaries : Display P3
Mastering display luminance : min: 0.0050 cd/m2, max: 1000 cd/m2

Audio #1
ID : 2
Format : AC-3
Format/Info : Audio Coding 3
Commercial name : Dolby Digital
Codec ID : A_AC3
Duration : 2 h 2 min
Bit rate mode : Constant
Bit rate : 448 kb/s
Channel(s) : 6 channels
Channel layout : L R C LFE Ls Rs
Sampling rate : 48.0 kHz
Frame rate : 31.250 FPS (1536 SPF)
Bit depth : 16 bits
Compression mode : Lossy
Stream size : 392 MiB (1%)
Title : 5.1 @ 448 kbps
Language : Ukrainian
Service kind : Complete Main
Default : Yes
Forced : Yes

Audio #2
ID : 3
Format : MLP FBA 16-ch
Format/Info : Meridian Lossless Packing FBA with 16-channel presentation
Commercial name : Dolby TrueHD with Dolby Atmos
Codec ID : A_TRUEHD
Duration : 2 h 2 min
Bit rate mode : Variable
Bit rate : 4 367 kb/s
Maximum bit rate : 7 641 kb/s
Channel(s) : 8 channels
Channel layout : L R C LFE Ls Rs Lb Rb
Sampling rate : 48.0 kHz
Frame rate : 1 200.000 FPS (40 SPF)
Compression mode : Lossless
Stream size : 3.73 GiB (7%)
Language : English
Default : No
Forced : No
Number of dynamic objects : 11
Bed channel count : 1 channel
Bed channel configuration : LFE

Audio #3
ID : 4
Format :
Format/Info : Digital Theater Systems
Codec ID : A_DTS
Duration : 2 h 2 min
Bit rate mode : Constant
Bit rate : 1 509 kb/s
Channel(s) : 6 channels
Channel layout : C L R Ls Rs LFE
Sampling rate : 48.0 kHz
Frame rate : 93.750 FPS (512 SPF)
Bit depth : 24 bits
Compression mode : Lossy
Stream size : 1.29 GiB (2%)
Title : 5.1 @ 1536 kbps
Language : English
Default : No
Forced : No

Text #1
ID : 5
Format : UTF-8
Codec ID : S_TEXT/UTF8
Codec ID/Info : UTF-8 Plain Text
Duration : 1 h 42 min
Bit rate : 1 b/s
Count of elements : 18
Stream size : 848 Bytes (0%)
Title : Forced
Language : Ukrainian
Default : Yes
Forced : Yes

Text #2
ID : 6
Format : UTF-8
Codec ID : S_TEXT/UTF8
Codec ID/Info : UTF-8 Plain Text
Duration : 2 h 0 min
Bit rate : 67 b/s
Count of elements : 1295
Stream size : 59.7 KiB (0%)
Title : Full
Language : Ukrainian
Default : No
Forced : No

Text #3
ID : 7
Format : UTF-8
Codec ID : S_TEXT/UTF8
Codec ID/Info : UTF-8 Plain Text
Duration : 1 h 51 min
Bit rate : 53 b/s
Count of elements : 1300
Stream size : 43.7 KiB (0%)
Title : full
Language : English
Default : No
Forced : No

Text #4
ID : 8
Format : UTF-8
Codec ID : S_TEXT/UTF8
Codec ID/Info : UTF-8 Plain Text
Duration : 1 h 51 min
Bit rate : 59 b/s
Count of elements : 1527
Stream size : 48.7 KiB (0%)
Title : SDH
Language : English
Default : No
Forced : No

Text #5
ID : 9
Format : UTF-8
Codec ID : S_TEXT/UTF8
Codec ID/Info : UTF-8 Plain Text
Duration : 59 min 3 s
Bit rate : 0 b/s
Count of elements : 15
Stream size : 365 Bytes (0%)
Title : Forced
Language : English
Default : No
Forced : No

Menu
00:00:00.000 : en:Chapter 01
00:08:26.547 : en:Chapter 02
00:16:11.636 : en:Chapter 03
00:32:38.288 : en:Chapter 04
00:42:16.367 : en:Chapter 05
00:52:22.264 : en:Chapter 06
00:59:50.628 : en:Chapter 07
01:12:05.529 : en:Chapter 08
01:22:34.448 : en:Chapter 09
01:33:00.948 : en:Chapter 10
01:40:33.318 : en:Chapter 11
01:47:38.993 : en:Chapter 12
01:52:32.662 : en:Chapter 13
01:55:41.350 : en:Chapter 14
02:02:21.917 : en:Chapter 15
Скріншоти












Джерело: &
Особиста оцінка: 8 - мені сподобалося


Золотий реліз (завантажене не впливає на рейтинг)
 Трекер:    Зареєстрований   

Завантажити / скачати фільм українською



відео для новачків



 Зареєстрований:   2019-08-27 16:56
 Розмір:   52.47 GB 
 Оцінка фільму:   9/10 (Голосів: 5)
   
LastExile 
Новенький


З нами з: 25.09.10
Востаннє: 19.10.19
Повідомлень: 24

2019-08-30 22:02  
Та ви знущаєтесь!
Я тільки учора передивився 1080р!

Ваш часовий пояс: GMT + 2 Години

Нова тема   Відповісти