Матрьошка (Сезон 1) / Russian Doll (Season 1) (2019) Ukr/Eng

Нові коментарі

Нова тема   Відповісти
Автор Повідомлення
Anonymous 







2019-08-26 12:27  
Матрьошка (Сезон 1) / Russian Doll (Season 1) (2019) Ukr/Eng

Матрьошка (Сезон 1) / Russian Doll (Season 1) (2019) Ukr/Eng


Жанр: комедія, драма, детектив, фантастика
Країна: США



Кінокомпанія: 3 Arts Entertainment, Jax Media, Netflix
Режисер: Леслі Гедленд, Наташа Ліонн, Джемі Беббіт
Актори: Наташа Ліонн, Грета Лі, Джордж Алой, Елізабет Ешлі, Чарлі Барнет, Ребекка Хендерсон, Джеремі Бобб

Сюжет:
Дівчина на ім'я Надя потрапляє в таємничу часову петлю, яка змушує її неодноразово відвідувати одну і ту ж вечірку в Нью-Йорку і в кінці неї вмирати, прокидаючись вранці неушкодженою.


Тривалість: 1 серія: 25:00 (цілком серій: 8)
Перелік серій
1.Nothing in This World Is Easy
2.The Great Escape
3.A Warm Body
4.Alan's Routine
5.Superiority Complex
6.Reflection
7.The Way Out
8.Ariadne
Якість:
Відео:
кодек:
розмір кадру: 704x352
бітрейт: ~1800 - 2300 кб/с

Аудіо # 1:
мова: українська
переклад: багатоголосий закадровий | DubLiCat (Olegolas, Оля Ілєнко, Тетяна Рябова)
кодек: 5.1
бітрейт: 384 кб/с



Шукайте нашу сторінку на FaceBook: DubLcat


Посилання на ТРЕЙЛЕР

Аудіо # 2:
мова: англійська
переклад: оригінал
кодек: 5.1
бітрейт: 384 кб/с
Info
Код:
General
Complete name                            : Russian Doll (2019) Season 1 [Ukr_Eng] [Hurtom]\Russian.Doll.S01E06.2019.Ukr.Eng..[Hurtom].avi
Format                                   : AVI
Format/Info                              : Audio Video Interleave
File size                                : 525 MiB
Duration                                 : 27 min 4 s
Overall bit rate                         : 2 714 kb/s
Writing application                      : Lavf58.20.100

Video
ID                                       : 0
Format                                   : MPEG-4 Visual
Format profile                           : Advanced [email protected]
Format settings                          : BVOP1
Format settings, BVOP                    : 1
Format settings, QPel                    : No
Format settings, GMC                     : No warppoints
Format settings, Matrix                  : Default (H.263)
Codec ID                                 :
Codec ID/Hint                            :
Duration                                 : 27 min 4 s
Bit rate                                 : 1 941 kb/s
Width                                    : 704 pixels
Height                                   : 352 pixels
Display aspect ratio                     : 2.000
Frame rate                               : 23.976 (24000/1001) FPS
Color space                              : YUV
Chroma subsampling                       : 4:2:0
Bit depth                                : 8 bits
Scan type                                : Progressive
Compression mode                         : Lossy
Bits/(Pixel*Frame)                       : 0.327
Stream size                              : 376 MiB (72%)
Writing library                          : 67

Audio #1
ID                                       : 1
Format                                   : AC-3
Format/Info                              : Audio Coding 3
Commercial name                          : Dolby Digital
Codec ID                                 : 2000
Duration                                 : 26 min 38 s
Bit rate mode                            : Constant
Bit rate                                 : 384 kb/s
Channel(s)                               : 6 channels
Channel layout                           : L R C LFE Ls Rs
Sampling rate                            : 48.0 kHz
Frame rate                               : 31.250 FPS (1536 SPF)
Bit depth                                : 16 bits
Compression mode                         : Lossy
Stream size                              : 73.2 MiB (14%)
Alignment                                : Aligned on interleaves
Interleave, duration                     : 33  ms (0.78 video frame)
Service kind                             : Complete Main

Audio #2
ID                                       : 2
Format                                   : AC-3
Format/Info                              : Audio Coding 3
Commercial name                          : Dolby Digital
Codec ID                                 : 2000
Duration                                 : 26 min 38 s
Bit rate mode                            : Constant
Bit rate                                 : 384 kb/s
Channel(s)                               : 6 channels
Channel layout                           : L R C LFE Ls Rs
Sampling rate                            : 48.0 kHz
Frame rate                               : 31.250 FPS (1536 SPF)
Bit depth                                : 16 bits
Compression mode                         : Lossy
Stream size                              : 73.2 MiB (14%)
Alignment                                : Aligned on interleaves
Interleave, duration                     : 33  ms (0.78 video frame)
Service kind                             : Complete Main
Скріншоти






Джерело:
Особиста оцінка: 8 - мені сподобалося


Авторський реліз (завантажувати можна без реєстрації)
 Трекер:    Зареєстрований   

Завантажити / скачати серіал українською



відео для новачків



 Зареєстрований:   2019-09-07 20:23
 Розмір:   4.11 GB 
 Оцінка серіалу:   5.9/10 (Голосів: 12)
   
tmturka 
Новенький


З нами з: 20.02.11
Востаннє: 11.09.19
Повідомлень: 4

2019-08-27 13:24  
Англійська набагато гучніша, українську не чути
Anonymous 







2019-08-27 13:52  
tmturka написано:
Англійська набагато гучніша, українську не чути

Дивлячись де дивитися і чим
У мене навпаки Happy

Anonymous 







2019-08-30 17:17  
+ Episodes 7
voronjuk 
Новенький


З нами з: 08.02.12
Востаннє: 13.09.19
Повідомлень: 7

2019-08-31 15:42  
в мене 5 епізод був без переклада.
Anonymous 







2019-08-31 22:14  
voronjuk написано:
в мене 5 епізод був без переклада.

Так відразу зробили , там друга доріжка укр. перша анг.

зараз виправлю

дякую

datsko1 
Новенький


З нами з: 10.07.15
Востаннє: 15.09.19
Повідомлень: 8

2019-08-31 23:19  
Як серіал, вартує трати часу?
Anonymous 







2019-09-01 00:14  
Торент файл оновлено. Виправив 5 серію.
Anonymous 







2019-09-07 20:24  
+ Episodes 8

Season 1

piznajko 
Відео Гуртом - субтитрування
Відео Гуртом - субтитрування


З нами з: 24.02.09
Востаннє: 15.09.19
Повідомлень: 1976

2019-09-08 05:54  
Anonymous написано:
(цілком серій: 6/8)

Виправте бласка

jaral 
Відео Гуртом - підтримка та поширення
Відео Гуртом - підтримка та поширення


З нами з: 18.10.07
Востаннє: 15.09.19
Повідомлень: 812

2019-09-12 01:39  
datsko1 написано:
Як серіал, вартує трати часу?
Hi.
Ваш часовий пояс: GMT + 2 Години

Нова тема   Відповісти